img image001 image001 image001 image001 image001 image001 image001 image001 image001 image001 image001 image001 image001 image001 image001

Planets Sun Sun Sun
Статистика раздачи
Автор: Nickolas3434 | Размер: 1.45 ГБ | Добавлен: 14 дек 2014
Раздают: 14    Качают: 6
Скачать торрент
Скачать торрент
Описание торрента

СообщениеДобавлено: 14 дек 2014 

Страна: СССР
Производство: Союздетфильм

Жанр: драма, биография
Год выпуска: 1938
Продолжительность: 01:36:26

Перевод: Не требуется
Cубтитры: нет
Оригинальная аудиодорожка: русский

Режиссер: Марк Донской

В ролях:
Алексей Лярский, Варвара Массалитинова, Михаил Трояновский, Иван Кудрявцев, Надежда Березовская, Федор Селезнёв, Елизавета Лилина, Ирина Зарубина, Дарья Зеркалова, Александр Тимонтаев, М. Поволоцкий, Николай Плотников, Иван Чувелев, К. Чугунов, В. Терентьев, Вячеслав Новиков, Николай Горлов, Владимир Марута, Анатолий Кубацкий...

Описание:
О Максиме Горьком на Западе знали как о русском, долго жившем на Капри. О Марке Донском — как об авторе гениальной трилогии «Детство», «В людях», «Мои университеты». Так уж случилось что режиссер, всю жизнь с огромным пиететом относившийся к каждой строчке повсеместно цитируемого им писателя, сделал Горького только цитатой из собственной жизни.
Алеша Пешков уходит из дома своего деда и отправляется на заработки, «в люди». Служит «мальчиком» у дяди-чертежника, мойщиком посуды на волжском пароходе, учеником в иконописной мастерской. Добрый, чуждый жестокости, он не может вынести царящей кругом несправедливости, отважно борется за правду и… вновь оказывается без угла и куска хлеба…






Источник: DVD9 R5
Качество видео: DVDRip
Формат видео: AVI

Виде: 704x528 (4:3), 25 fps, XviD ~ 1701 kbps avg, 0.183 bit/pixel
Аудио: 48 kHz, Dolby Digital AC3 5.1, 448 kbps

Раздача от:
Общее
Полное имя : В людяхV.lyudyah.1938.DVDRip_[New-team]_by_AVP_Studio.avi
Формат : AVI
Формат/Информация : Audio Video Interleave
Размер файла : 1,45 Гбайт
Продолжительность : 1 ч. 36 м.
Общий поток : 2158 Кбит/сек
Программа кодирования : VirtualDubModRus 1.5.10.2 (build 2542/release)
Библиотека кодирования : VirtualDubMod build 2542/release

Видео
Идентификатор : 0
Формат : MPEG-4 Visual
Профиль формата : Advanced Simple@L5
Параметр BVOP формата : 1
Параметр QPel формата : Нет
Параметр GMC формата : Без точки перехода
Параметр матрицы формата : Выборочная
Идентификатор кодека : XVID
Идентификатор кодека/Подсказка : XviD
Продолжительность : 1 ч. 36 м.
Битрейт : 1701 Кбит/сек
Ширина : 704 пикселя
Высота : 528 пикселей
Соотношение сторон : 4:3
Частота кадров : 25,000 кадров/сек
Цветовое пространство : YUV
Субдискретизация насыщенности : 4:2:0
Битовая глубина : 8 бит
Тип развёртки : Прогрессивная
Метод сжатия : С потерями
Бит/(Пиксели*Кадры) : 0.183
Размер потока : 1,15 Гбайт (79%)
Библиотека кодирования : XviD 73

Аудио
Идентификатор : 1
Формат : AC-3
Формат/Информация : Audio Coding 3
Расширение режима : CM (complete main)
Параметр Endianness формата : Big
Идентификатор кодека : 2000
Продолжительность : 1 ч. 36 м.
Вид битрейта : Постоянный
Битрейт : 448 Кбит/сек
Каналы : 6 каналов
Расположение каналов : Front: L C R, Side: L R, LFE
Частота : 48,0 КГц
Битовая глубина : 16 бит
Метод сжатия : С потерями
Размер потока : 309 Мбайт (21%)
Выравнивание : Разделение по промежуткам
Продолжительность промежутка : 40 мс. (1,00 видеокадр)
Время предзагрузки промежутка : 500 мс





   Похожие торренты   Торрент   Размер 
В этой теме нет новых непрочитанных сообщений. В людях (1938) DVDRip-AVC от New-Team

9 | 22

1.46 ГБ

В этой теме нет новых непрочитанных сообщений. В людях (1938) DVDRip от New-Team

7 | 7

743.93 МБ

В этой теме нет новых непрочитанных сообщений. Комсомольск (1938) DVDRip-AVC от New-Team

29 | 7

1.46 ГБ

В этой теме нет новых непрочитанных сообщений. Медведь (1938) DVDRip от New-Team

36 | 5

744.96 МБ

В этой теме нет новых непрочитанных сообщений. Комсомольск (1938) DVDRip от New-Team

11 | 5

1.46 ГБ

В этой теме нет новых непрочитанных сообщений. Медведь (1938) DVDRip-AVC от New-Team

139 | 17

744.43 МБ

В этой теме нет новых непрочитанных сообщений. Маска (1938) DVDRip от New-Team

15 | 4

372.58 МБ




Вы не можете начинать темы
Вы не можете отвечать на сообщения
Вы не можете редактировать свои сообщения
Вы не можете удалять свои сообщения
Вы не можете добавлять вложения

Перейти:  
Для Мосгорсуда, Роскомнадзора и рекламодателей: mosgorsud-torrent[собачка]yandex.ru
 Вход
ppkBB3cker v.2 © 2008-2014 @ PPK
[ Time : 0.053s | 16 Queries | GZIP : Off ]

cron