img image001 image001 image001 image001 image001 image001 image001 image001 image001 image001 image001 image001 image001 image001 image001

Planets Sun Sun Sun
Статистика раздачи
Автор: Nickolas3434 | Размер: 743.93 МБ | Добавлен: 14 дек 2014
Раздают: 7    Качают: 7
Скачать торрент
Скачать торрент
Описание торрента

СообщениеДобавлено: 14 дек 2014 

Страна: СССР
Производство: Союздетфильм

Жанр: драма, биография
Год выпуска: 1938
Продолжительность: 01:36:26

Перевод: Не требуется
Cубтитры: нет
Оригинальная аудиодорожка: русский

Режиссер: Марк Донской

В ролях:
Алексей Лярский, Варвара Массалитинова, Михаил Трояновский, Иван Кудрявцев, Надежда Березовская, Федор Селезнёв, Елизавета Лилина, Ирина Зарубина, Дарья Зеркалова, Александр Тимонтаев, М. Поволоцкий, Николай Плотников, Иван Чувелев, К. Чугунов, В. Терентьев, Вячеслав Новиков, Николай Горлов, Владимир Марута, Анатолий Кубацкий...

Описание:
О Максиме Горьком на Западе знали как о русском, долго жившем на Капри. О Марке Донском — как об авторе гениальной трилогии «Детство», «В людях», «Мои университеты». Так уж случилось что режиссер, всю жизнь с огромным пиететом относившийся к каждой строчке повсеместно цитируемого им писателя, сделал Горького только цитатой из собственной жизни.
Алеша Пешков уходит из дома своего деда и отправляется на заработки, «в люди». Служит «мальчиком» у дяди-чертежника, мойщиком посуды на волжском пароходе, учеником в иконописной мастерской. Добрый, чуждый жестокости, он не может вынести царящей кругом несправедливости, отважно борется за правду и… вновь оказывается без угла и куска хлеба…






Источник: DVD9 R5
Качество видео: DVDRip
Формат видео: AVI

Виде: 576x432 (4:3), 25 fps, XviD ~ 941 kbps avg, 0.151 bit/pixel
Аудио: 48 kHz, MP3 1.0, 128 kbps

Раздача от:
Общее
Полное имя : V.lyudyah.1938.DVDRip-745_[New-team]_by_AVP_Studio.avi
Формат : AVI
Формат/Информация : Audio Video Interleave
Размер файла : 744 Мбайт
Продолжительность : 1 ч. 36 м.
Общий поток : 1079 Кбит/сек
Программа кодирования : VirtualDubModRus 1.5.10.2 (build 2542/release)
Библиотека кодирования : VirtualDubMod build 2542/release

Видео
Идентификатор : 0
Формат : MPEG-4 Visual
Профиль формата : Advanced Simple@L5
Параметр BVOP формата : 1
Параметр QPel формата : Нет
Параметр GMC формата : Без точки перехода
Параметр матрицы формата : Выборочная
Идентификатор кодека : XVID
Идентификатор кодека/Подсказка : XviD
Продолжительность : 1 ч. 36 м.
Битрейт : 941 Кбит/сек
Ширина : 576 пикселей
Высота : 432 пикселя
Соотношение сторон : 4:3
Частота кадров : 25,000 кадров/сек
Цветовое пространство : YUV
Субдискретизация насыщенности : 4:2:0
Битовая глубина : 8 бит
Тип развёртки : Прогрессивная
Метод сжатия : С потерями
Бит/(Пиксели*Кадры) : 0.151
Размер потока : 649 Мбайт (87%)
Библиотека кодирования : XviD 73

Аудио
Идентификатор : 1
Формат : MPEG Audio
Версия формата : Version 1
Профиль формата : Layer 3
Идентификатор кодека : 55
Идентификатор кодека/Подсказка : MP3
Продолжительность : 1 ч. 36 м.
Вид битрейта : Постоянный
Битрейт : 128 Кбит/сек
Каналы : 2 канала
Частота : 48,0 КГц
Метод сжатия : С потерями
Размер потока : 88,3 Мбайт (12%)
Выравнивание : Соединение по промежуткам
Продолжительность промежутка : 40 мс. (1,00 видеокадр)
Время предзагрузки промежутка : 504 мс.
Библиотека кодирования : LAME3.99r
Настройки программы : -m s -V 4 -q 2 -lowpass 17 -b 128





   Похожие торренты   Торрент   Размер 
В этой теме нет новых непрочитанных сообщений. В людях (1938) DVDRip от New-Team

14 | 6

1.45 ГБ

В этой теме нет новых непрочитанных сообщений. В людях (1938) DVDRip-AVC от New-Team

9 | 22

1.46 ГБ

В этой теме нет новых непрочитанных сообщений. На границе (1938) DVDRip-AVC от New-Team

12 | 7

1.46 ГБ

В этой теме нет новых непрочитанных сообщений. На границе (1938) DVDRip от New-Team

9 | 10

744.51 МБ

В этой теме нет новых непрочитанных сообщений. На границе (1938) DVDRip от New-Team

19 | 6

1.46 ГБ

В этой теме нет новых непрочитанных сообщений. Маска (1938) DVDRip от New-Team

15 | 4

372.58 МБ

В этой теме нет новых непрочитанных сообщений. Комсомольск (1938) DVDRip-AVC от New-Team

29 | 7

1.46 ГБ




Вы не можете начинать темы
Вы не можете отвечать на сообщения
Вы не можете редактировать свои сообщения
Вы не можете удалять свои сообщения
Вы не можете добавлять вложения

Перейти:  
Для Мосгорсуда, Роскомнадзора и рекламодателей: mosgorsud-torrent[собачка]yandex.ru
 Вход
ppkBB3cker v.2 © 2008-2014 @ PPK
[ Time : 0.051s | 16 Queries | GZIP : Off ]

cron