img image001 image001 image001 image001 image001 image001 image001 image001 image001 image001 image001 image001 image001 image001 image001

Planets Sun Sun Sun
Статистика раздачи
Автор: Nickolas3434 | Размер: 1.45 ГБ | Добавлен: 14 дек 2014
Раздают: 12    Качают: 10
Скачать торрент
Скачать торрент
Описание торрента

СообщениеДобавлено: 14 дек 2014 

Страна: СССР
Производство: Союздетфильм

Жанр: драма, биография
Год выпуска: 1939
Продолжительность: 01:36:58

Перевод: Не требуется
Cубтитры: нет
Оригинальная аудиодорожка: русский

Режиссер: Марк Донской

В ролях:
Николай Вальберт, Степан Каюков, Николай Дорохин, Николай Плотников, Лев Свердлин, Даниил Сагал, М. Поволоцкий, Павел Шпрингфельд, Михаил Трояновский, Владимир Марута, Александр Грузинский, Ирина Федотова, Валентина Данчева, Павлик Дождев, К. Зюбко, А. Смолко...

Описание:
О Максиме Горьком на Западе знали как о русском, долго жившем на Капри. О Марке Донском — как об авторе гениальной трилогии «Детство», «В людях», «Мои университеты». Так уж случилось что режиссер, всю жизнь с огромным пиететом относившийся к каждой строчке повсеместно цитируемого им писателя, сделал Горького только цитатой из собственной жизни.
Третья часть кинотрилогии и жизни и судьбе М. Горького, поставленная по одноименному автобиографическому роману писателя… Алеша Пешков приезжает в Казань учиться. Университет для него оказался несбыточной мечтой, пришлось искать работу, жить без пристанища. Думы молодого Пешкова о жизни не менее тяжелы, чем сама жизнь. В минуту отчаяния он решается на самоубийство…






Источник: DVD9 R5
Качество видео: DVDRip
Формат видео: AVI

Виде: 704x528 (4:3), 25 fps, XviD ~ 1690 kbps avg, 0.182 bit/pixel
Аудио: 48 kHz, Dolby Digital AC3 5.1, 448 kbps

Раздача от:
Общее
Полное имя : Moi.universitety.1939.DVDRip_[New-team]_by_AVP_Studio.avi
Формат : AVI
Формат/Информация : Audio Video Interleave
Размер файла : 1,45 Гбайт
Продолжительность : 1 ч. 36 м.
Общий поток : 2147 Кбит/сек
Программа кодирования : VirtualDubModRus 1.5.10.2 (build 2542/release)
Библиотека кодирования : VirtualDubMod build 2542/release

Видео
Идентификатор : 0
Формат : MPEG-4 Visual
Профиль формата : Advanced Simple@L5
Параметр BVOP формата : 1
Параметр QPel формата : Нет
Параметр GMC формата : Без точки перехода
Параметр матрицы формата : Выборочная
Идентификатор кодека : XVID
Идентификатор кодека/Подсказка : XviD
Продолжительность : 1 ч. 36 м.
Битрейт : 1690 Кбит/сек
Ширина : 704 пикселя
Высота : 528 пикселей
Соотношение сторон : 4:3
Частота кадров : 25,000 кадров/сек
Цветовое пространство : YUV
Субдискретизация насыщенности : 4:2:0
Битовая глубина : 8 бит
Тип развёртки : Прогрессивная
Метод сжатия : С потерями
Бит/(Пиксели*Кадры) : 0.182
Размер потока : 1,14 Гбайт (79%)
Библиотека кодирования : XviD 73

Аудио
Идентификатор : 1
Формат : AC-3
Формат/Информация : Audio Coding 3
Расширение режима : CM (complete main)
Параметр Endianness формата : Big
Идентификатор кодека : 2000
Продолжительность : 1 ч. 36 м.
Вид битрейта : Постоянный
Битрейт : 448 Кбит/сек
Каналы : 6 каналов
Расположение каналов : Front: L C R, Side: L R, LFE
Частота : 48,0 КГц
Битовая глубина : 16 бит
Метод сжатия : С потерями
Размер потока : 311 Мбайт (21%)
Выравнивание : Разделение по промежуткам
Продолжительность промежутка : 40 мс. (1,00 видеокадр)
Время предзагрузки промежутка : 500 мс





   Похожие торренты   Торрент   Размер 
В этой теме нет новых непрочитанных сообщений. Мои университеты (1939) DVDRip от New-Team

8 | 11

745.59 МБ

В этой теме нет новых непрочитанных сообщений. Мои университеты (1939) DVDRip-AVC от New-Team

15 | 16

1.46 ГБ

В этой теме нет новых непрочитанных сообщений. Мойдодыр (1939,1954), Тараканище, Федорино горе, От двух до пяти, Ваня и крокодил, Краденое солнце (1939-1984) DVDRip от New-Team

373 | 22

1.45 ГБ

В этой теме нет новых непрочитанных сообщений. Мойдодыр (1939,1954), Тараканище, Федорино горе, От двух до пяти, Ваня и крокодил, Краденое солнце (1939-1984) DVDRip-AVC от New-Team

401 | 36

1.46 ГБ

В этой теме нет новых непрочитанных сообщений. Мойдодыр (1939,1954), Тараканище, Федорино горе, От двух до пяти, Ваня и крокодил, Краденое солнце (1939-1984) DVDRip от New-Team

553 | 32

744.47 МБ

В этой теме нет новых непрочитанных сообщений. Друзья (1939) DVDRip от New-Team

4 | 6

748.02 МБ

В этой теме нет новых непрочитанных сообщений. Трактористы (1939) DVDRip-AVC от New-Team

280 | 35

1.46 ГБ




Вы не можете начинать темы
Вы не можете отвечать на сообщения
Вы не можете редактировать свои сообщения
Вы не можете удалять свои сообщения
Вы не можете добавлять вложения

Перейти:  
Для Мосгорсуда, Роскомнадзора и рекламодателей: mosgorsud-torrent[собачка]yandex.ru
 Вход
ppkBB3cker v.2 © 2008-2014 @ PPK
[ Time : 0.041s | 16 Queries | GZIP : Off ]

cron