img image001 image001 image001 image001 image001 image001 image001 image001 image001 image001 image001 image001 image001 image001 image001

Planets Sun Sun Sun
Статистика раздачи
Автор: Nickolas3434 | Размер: 1.89 ГБ | Добавлен: 14 дек 2014
Раздают: 1840    Качают: 59
Скачать торрент
Скачать торрент
Описание торрента

СообщениеДобавлено: 14 дек 2014 

Информация о фильме

Оригинальное название: Горько! 2
Год выпуска: 2014
Жанр: Комедия, приключения
Выпущено: Россия, Базелевс Продакшн, Кинокомпания «Lunapark»
Режиссер: Жора Крыжовников
В ролях: Сергей Светлаков, Юлия Александрова, Егор Корешков, Ян Цапник, Сергей Лавыгин, Елена Валюшкина, Александр Паль, Валентина Мазунина, Юлия Стадник, Александр Робак
О фильме: В надежде сорвать большой куш Наташин отчим идет на финансовую авантюру, чем подставляет своих партнеров по бизнесу. Без лишних слов те устраивают на него покушение. Вся семья скорбит по Борису Ивановичу… а он в гробу все это видел. Ему бы три дня пролежать и похороны пережить, а там родные откопают и можно спать спокойно. И все идет по плану уцелевшего отчима, пока проститься с ним не приезжает боевой товарищ. Рубаха-парень Витька Каравай мгновенно покоряет всю семью, перетягивая общее внимание на себя. Задетый за живое, покойник заставляет родных устроить роскошные поминки с участием Светлакова…

Файл
Качество: BDRip (AVC)
Видео: MPEG-4 AVC, 2355 Кбит/с, 1024x538
Аудио: AC3, 6 ch, 448 Кбит/с
Продолжительность: 01:36:32
Язык: Русский
Субтитры: Английские

Сохранены оригинальные чаптеры как на исходном Blu-Ray.
За исходный Blu-Ray спасибо BLUEBIRD

General
Unique ID : 199690798759313943752122065140847758153 (0x963B0C846094AFD3B423DEE945D04B49)
Complete name : C:Gorjko2.2014.O.BDRip.AVC.ExKinoRay.mkv
Format : Matroska
Format version : Version 2
File size : 1.89 GiB
Duration : 1h 36mn
Overall bit rate : 2 802 Kbps
Movie name : Гокько 2 2014 from ExKinoRay
Encoded date : UTC 2014-12-13 06:31:45
Writing application : mkvmerge v4.9.1 ('Ich will') built on Jul 11 2011 23:53:15
Writing library : libebml v1.2.1 + libmatroska v1.1.1

Video
ID : 1
Format : AVC
Format/Info : Advanced Video Codec
Format profile : High@L4.1
Format settings, CABAC : Yes
Format settings, ReFrames : 9 frames
Codec ID : V_MPEG4/ISO/AVC
Duration : 1h 36mn
Bit rate : 2 355 Kbps
Width : 1 024 pixels
Height : 538 pixels
Display aspect ratio : 1.903
Frame rate mode : Constant
Frame rate : 24.000 fps
Color space : YUV
Chroma subsampling : 4:2:0
Bit depth : 8 bits
Scan type : Progressive
Bits/(Pixel*Frame) : 0.178
Stream size : 1.55 GiB (82%)
Title : Enigma-Vladislav71
Writing library : x264 core 133 r2334 a3ac64b
Encoding settings : cabac=1 / ref=9 / deblock=1:-1:-2 / analyse=0x3:0x113 / me=umh / subme=11 / psy=1 / psy_rd=1.00:0.10 / mixed_ref=1 / me_range=32 / chroma_me=1 / trellis=2 / 8x8dct=1 / cqm=0 / deadzone=21,11 / fast_pskip=0 / chroma_qp_offset=-3 / threads=12 / lookahead_threads=2 / sliced_threads=0 / nr=0 / decimate=0 / interlaced=0 / bluray_compat=0 / constrained_intra=0 / bframes=9 / b_pyramid=2 / b_adapt=2 / b_bias=0 / direct=3 / weightb=1 / open_gop=0 / weightp=2 / keyint=240 / keyint_min=23 / scenecut=40 / intra_refresh=0 / rc=2pass / mbtree=0 / bitrate=2355 / ratetol=1.0 / qcomp=0.60 / qpmin=0 / qpmax=69 / qpstep=4 / cplxblur=20.0 / qblur=0.5 / ip_ratio=1.40 / pb_ratio=1.30 / aq=1:1.00
Language : English
Default : Yes
Forced : No
Color primaries : BT.709
Transfer characteristics : BT.709
Matrix coefficients : BT.709

Audio
ID : 2
Format : AC-3
Format/Info : Audio Coding 3
Mode extension : CM (complete main)
Format settings, Endianness : Big
Codec ID : A_AC3
Duration : 1h 36mn
Bit rate mode : Constant
Bit rate : 448 Kbps
Channel(s) : 6 channels
Channel positions : Front: L C R, Side: L R, LFE
Sampling rate : 48.0 KHz
Bit depth : 16 bits
Compression mode : Lossy
Stream size : 309 MiB (16%)
Language : Russian
Default : Yes
Forced : No

Text
ID : 3
Format : UTF-8
Codec ID : S_TEXT/UTF8
Codec ID/Info : UTF-8 Plain Text
Language : English
Default : No
Forced : No

Menu
00:00:00.000 : ru:Chapter 01
00:08:07.458 : ru:Chapter 02
00:14:47.458 : ru:Chapter 03
00:24:51.125 : ru:Chapter 04
00:33:26.291 : ru:Chapter 05
00:38:05.083 : ru:Chapter 06
00:43:42.000 : ru:Chapter 07
00:54:05.916 : ru:Chapter 08
01:04:23.500 : ru:Chapter 09
01:12:20.416 : ru:Chapter 10
01:20:05.083 : ru:Chapter 11
01:28:45.208 : ru:Chapter 12
01:36:32.791 : ru:Chapter 13






Релиз от:

Авторы релиза:



   Похожие торренты   Торрент   Размер 
В этой теме нет новых непрочитанных сообщений. Горько! 2 (2014) BDRip от ExKinoRay | Лицензия

715 | 38

749.84 МБ

В этой теме нет новых непрочитанных сообщений. Горько! 2 (2014) BDRip 1080p от ExKinoRay | Лицензия

1298 | 62

7.46 ГБ

В этой теме нет новых непрочитанных сообщений. Горько! 2 (2014) BDRip от HQCLUB | Лицензия

2115 | 90

1.45 ГБ

В этой теме нет новых непрочитанных сообщений. Горько! 2 (2014) BDRip от Twi7ter | Лицензия

1044 | 39

1.47 ГБ

В этой теме нет новых непрочитанных сообщений. Горько! 2 (2014) BDRip 720p | Лицензия

1385 | 95

4.55 ГБ

В этой теме нет новых непрочитанных сообщений. Горько! Дилогия (2013-2014) BDRip-AVC от HELLYWOOD | Лицензия

230 | 100

5.78 ГБ

В этой теме нет новых непрочитанных сообщений. Горько! 2 (2014) BDRip 720p от Leonardo and Scarabey | iPad | Лицензия

515 | 59

2.2 ГБ




Вы не можете начинать темы
Вы не можете отвечать на сообщения
Вы не можете редактировать свои сообщения
Вы не можете удалять свои сообщения
Вы не можете добавлять вложения

Перейти:  
Для Мосгорсуда, Роскомнадзора и рекламодателей: mosgorsud-torrent[собачка]yandex.ru
 Вход
ppkBB3cker v.2 © 2008-2014 @ PPK
[ Time : 0.087s | 15 Queries | GZIP : Off ]

Торрент трекер RUTOR.IN, Не можете зайти на rutor.org? Какой новый адрес рутор? Какое зеркало рутор? Не работает rutor.org и зеркала? Тогда наш торрент специально для вас. Rutor.in неофициальное зеркало rutor. В случае если у Вас заблокирован rutor или вдруг Вы не можете на него зайти, то Вы без труда сможете скачать бесплатно и без рекламы последние новинки кино, игр, сериалов и прочего у нас, на Rutor.in. Не нужно использовать прокси, чтобы зайти на рутор, достаточно воспользоваться нашим ресурсом. Все новые фильмы, игры, сериалы, книги и музыка за 2013 и 2014 годы через торрент бесплатно. Скачивайте фильмы в хорошем качестве, игры для пк, xbox, playstation без регистрации. У нас вы найдете новые Зарубежные сериалы и Русские сериалы 2013, 2014, 2015 годов. Оставайтесь с нами, качайте любимые фильмы, игры, сериалы, книги и музыку.