img image001 image001 image001 image001 image001 image001 image001 image001 image001 image001 image001 image001 image001 image001 image001

Planets Sun Sun Sun
Статистика раздачи
Автор: Nickolas3434 | Размер: 1.09 ГБ | Добавлен: 14 дек 2014
Раздают: 62    Качают: 8
Скачать торрент
Скачать торрент
Описание торрента

СообщениеДобавлено: 14 дек 2014 

Страна: СССР
Производство: Grading Dimension Pictures, Мосфильм

Жанр: драма, комедия
Год выпуска: 1939
Продолжительность: 01:10:03

Перевод: Не требуется
Cубтитры: нет
Оригинальная аудиодорожка: русский

Режиссер: Татьяна Лукашевич

В ролях:
Вероника Лебедева, Фаина Раневская, Петр Репнин, Ростислав Плятт, Рина Зелёная, Ольга Жизнева, Виктор Громов, Татьяна Барышева, Эля Быковская, Дима Глухов, Витя Бойко, Андрей Старостин, Станислав Леута, Николай Арский (Андреев), Иван Лобызовский, Николай Юдин, Фёдор Одиноков, Лёва Аннинский, Лев Иванов...

Описание:
Мама поехала снимать дачу на лето, оставив маленькую Наташу под присмотром старшего брата Юры. Юра строго приказал Наташе спать до двух часов. Тут раздался звонок в дверь, и к брату пришли в гости мальчик и девочка. Они настолько увлеклись обсуждением своих пионерских поручений, что не заметили, как Наташа, немного поплакав, оделась, ушла из квартиры на улицу - и потерялась в большом городе, потому что номер квартиры и "звонить два раза" она уже выучила, а вот название улицы и номер дома, где живет, - еще нет...





Источник: DVD5 R5
Качество видео: DVDRip
Формат видео: AVI

Виде: 704x512 (1,375:1), 25 fps, XviD ~ 1842 kbps avg, 0.204 bit/pixel
Аудио: 48 kHz, Dolby Digital AC3 5.1, 384 kbps

Раздача от:
Общее
Полное имя : Podkidysh.1939.DVDRip_[New-team]_by_AVP_Studio.avi
Формат : AVI
Формат/Информация : Audio Video Interleave
Размер файла : 1,09 Гбайт
Продолжительность : 1 ч. 10 м.
Общий поток : 2229 Кбит/сек
Программа кодирования : VirtualDubModRus 1.5.10.2 (build 2542/release)
Библиотека кодирования : VirtualDubMod build 2542/release

Видео
Идентификатор : 0
Формат : MPEG-4 Visual
Профиль формата : Advanced Simple@L5
Параметр BVOP формата : 1
Параметр QPel формата : Нет
Параметр GMC формата : Без точки перехода
Параметр матрицы формата : Выборочная
Идентификатор кодека : XVID
Идентификатор кодека/Подсказка : XviD
Продолжительность : 1 ч. 10 м.
Битрейт : 1842 Кбит/сек
Ширина : 704 пикселя
Высота : 512 пикселей
Соотношение сторон : 1,375
Частота кадров : 25,000 кадров/сек
Цветовое пространство : YUV
Субдискретизация насыщенности : 4:2:0
Битовая глубина : 8 бит
Тип развёртки : Прогрессивная
Метод сжатия : С потерями
Бит/(Пиксели*Кадры) : 0.204
Размер потока : 923 Мбайт (83%)
Библиотека кодирования : XviD 73

Аудио
Идентификатор : 1
Формат : AC-3
Формат/Информация : Audio Coding 3
Расширение режима : CM (complete main)
Параметр Endianness формата : Big
Идентификатор кодека : 2000
Продолжительность : 1 ч. 9 м.
Вид битрейта : Постоянный
Битрейт : 384 Кбит/сек
Каналы : 6 каналов
Расположение каналов : Front: L C R, Side: L R, LFE
Частота : 48,0 КГц
Битовая глубина : 16 бит
Метод сжатия : С потерями
Размер потока : 190 Мбайт (17%)
Выравнивание : Разделение по промежуткам
Продолжительность промежутка : 41 мс. (1,02 видеокадр)
Время предзагрузки промежутка : 500 мс





   Похожие торренты   Торрент   Размер 
В этой теме нет новых непрочитанных сообщений. Подкидыш (1939) DVDRip от New-Team | Цветная версия

23 | 6

743.77 МБ

В этой теме нет новых непрочитанных сообщений. Подкидыш (1939) DVDRip-AVC от New-Team | Цветная версия

167 | 20

1.09 ГБ

В этой теме нет новых непрочитанных сообщений. Подкидыш (1939) DVDRip от MediaClub | КПК | Цветная версия

28 | 3

311.3 МБ

В этой теме нет новых непрочитанных сообщений. Подкидыш (1939) DVDRip-AVC от RZ-7 | Реставрация в цвете

47 | 7

1.09 ГБ

В этой теме нет новых непрочитанных сообщений. Подкидыш (1939) DVDRip | реставрация в цвете

115 | 17

1.34 ГБ

В этой теме нет новых непрочитанных сообщений. Подкидыш (1939) DVD5

13 | 3

3.71 ГБ

В этой теме нет новых непрочитанных сообщений. Небесный тихоход (1945) BDRip-AVC от New-Team | Цветная версия

298 | 14

1.46 ГБ




Вы не можете начинать темы
Вы не можете отвечать на сообщения
Вы не можете редактировать свои сообщения
Вы не можете удалять свои сообщения
Вы не можете добавлять вложения

Перейти:  
Для Мосгорсуда, Роскомнадзора и рекламодателей: mosgorsud-torrent[собачка]yandex.ru
 Вход
ppkBB3cker v.2 © 2008-2014 @ PPK
[ Time : 0.067s | 15 Queries | GZIP : Off ]

Торрент трекер RUTOR.IN, Не можете зайти на rutor.org? Какой новый адрес рутор? Какое зеркало рутор? Не работает rutor.org и зеркала? Тогда наш торрент специально для вас. Rutor.in неофициальное зеркало rutor. В случае если у Вас заблокирован rutor или вдруг Вы не можете на него зайти, то Вы без труда сможете скачать бесплатно и без рекламы последние новинки кино, игр, сериалов и прочего у нас, на Rutor.in. Не нужно использовать прокси, чтобы зайти на рутор, достаточно воспользоваться нашим ресурсом. Все новые фильмы, игры, сериалы, книги и музыка за 2013 и 2014 годы через торрент бесплатно. Скачивайте фильмы в хорошем качестве, игры для пк, xbox, playstation без регистрации. У нас вы найдете новые Зарубежные сериалы и Русские сериалы 2013, 2014, 2015 годов. Оставайтесь с нами, качайте любимые фильмы, игры, сериалы, книги и музыку.