img image001 image001 image001 image001 image001 image001 image001 image001 image001 image001 image001 image001 image001 image001 image001

Planets Sun Sun Sun
Статистика раздачи
Автор: Nickolas3434 | Размер: 7.46 ГБ | Добавлен: 14 дек 2014
Раздают: 1298    Качают: 62
Скачать торрент
Скачать торрент
Описание торрента

СообщениеДобавлено: 14 дек 2014 

Информация о фильме

Оригинальное название: Горько! 2
Год выпуска: 2014
Жанр: Комедия, приключения
Выпущено: Россия, Базелевс Продакшн, Кинокомпания «Lunapark»
Режиссер: Жора Крыжовников
В ролях: Сергей Светлаков, Юлия Александрова, Егор Корешков, Ян Цапник, Сергей Лавыгин, Елена Валюшкина, Александр Паль, Валентина Мазунина, Юлия Стадник, Александр Робак
О фильме: В надежде сорвать большой куш Наташин отчим идет на финансовую авантюру, чем подставляет своих партнеров по бизнесу. Без лишних слов те устраивают на него покушение. Вся семья скорбит по Борису Ивановичу… а он в гробу все это видел. Ему бы три дня пролежать и похороны пережить, а там родные откопают и можно спать спокойно. И все идет по плану уцелевшего отчима, пока проститься с ним не приезжает боевой товарищ. Рубаха-парень Витька Каравай мгновенно покоряет всю семью, перетягивая общее внимание на себя. Задетый за живое, покойник заставляет родных устроить роскошные поминки с участием Светлакова…

Файл

Качество: BDRip (1080p)
Видео: MPEG-4 AVC, 9111 Кбит/с, 1920x1012, 24 кадр/с
Аудио: AC3, 6 ch, 448 Кбит/с, DTS, 6 ch, 1509 Кбит/с
Размер: 7.46 ГБ
Продолжительность: 01:36:32
Язык: Русский
Субтитры: Английские
Сохранены оригинальные чаптеры как на исходном Blu-Ray.

x264 [info]: frame I:1025 Avg QP:15.81 size:225894
x264 [info]: frame P:36220 Avg QP:19.61 size: 94963
x264 [info]: frame B:101783 Avg QP:22.37 size: 28717
x264 [info]: consecutive B-frames: 3.8% 7.9% 10.5% 32.9% 12.8% 16.9% 5.1% 6.9% 2.1% 1.1%
x264 [info]: mb I I16..4: 17.4% 51.2% 31.4%
x264 [info]: mb P I16..4: 6.4% 22.7% 3.7% P16..4: 27.8% 23.3% 5.1% 2.0% 0.2% skip: 8.8%
x264 [info]: mb B I16..4: 2.0% 3.9% 0.6% B16..8: 34.3% 13.5% 1.7% direct: 7.6% skip:36.4% L0:41.6% L1:44.2% BI:14.2%
x264 [info]: 8x8 transform intra:65.1% inter:59.6%
x264 [info]: direct mvs spatial:98.9% temporal:1.1%
x264 [info]: coded y,uvDC,uvAC intra: 66.1% 69.5% 38.3% inter: 24.2% 32.6% 10.9%
x264 [info]: i16 v,h,dc,p: 31% 20% 8% 41%
x264 [info]: i8 v,h,dc,ddl,ddr,vr,hd,vl,hu: 12% 12% 11% 8% 10% 11% 12% 11% 14%
x264 [info]: i4 v,h,dc,ddl,ddr,vr,hd,vl,hu: 25% 13% 12% 6% 9% 9% 10% 7% 9%
x264 [info]: i8c dc,h,v,p: 29% 34% 22% 15%
x264 [info]: Weighted P-Frames: Y:1.7% UV:0.8%
x264 [info]: ref P L0: 60.1% 13.0% 18.8% 7.2% 0.9% 0.0%
x264 [info]: ref B L0: 89.6% 8.6% 1.8%
x264 [info]: ref B L1: 94.4% 5.6%
x264 [info]: kb/s:9106.46


Общее
Уникальный идентификатор : 213442627434513973771513289291035054887 (0xA0938E04A6E0F04FA77695C3FC741327)
Полное имя : D:ЗагрузкиGorko.2.2014.x264.BDRip.(1080p).ExKinoRay.mkv
Формат : Matroska
Версия формата : Version 2
Размер файла : 7,46 Гбайт
Продолжительность : 1 ч. 36 м.
Общий поток : 11,1 Мбит/сек
Название фильма : Горько!2.2014.Rip by: ollan
Дата кодирования : UTC 2014-12-13 08:01:23
Программа кодирования : mkvmerge v5.6.0 ('Kenya Kane') built on May 27 2012 16:44:04
Библиотека кодирования : libebml v1.2.3 + libmatroska v1.3.0

Видео
Идентификатор : 1
Формат : AVC
Формат/Информация : Advanced Video Codec
Профиль формата : High@L4.1
Параметр CABAC формата : Да
Параметр ReFrames формата : 4 кадра
Идентификатор кодека : V_MPEG4/ISO/AVC
Продолжительность : 1 ч. 36 м.
Битрейт : 9111 Кбит/сек
Ширина : 1920 пикселей
Высота : 1012 пикселей
Соотношение сторон : 1,897
Режим частоты кадров : Постоянный
Частота кадров : 24,000 кадра/сек
Цветовое пространство : YUV
Субдискретизация насыщенности : 4:2:0
Битовая глубина : 8 бит
Тип развёртки : Прогрессивная
Бит/(Пиксели*Кадры) : 0.195
Размер потока : 5,99 Гбайт (80%)
Библиотека кодирования : x264 core 125 r2200 999b753
Настройки программы : cabac=1 / ref=4 / deblock=1:-3:-3 / analyse=0x3:0x133 / me=umh / subme=11 / psy=1 / psy_rd=1.00:0.10 / mixed_ref=1 / me_range=32 / chroma_me=1 / trellis=2 / 8x8dct=1 / cqm=0 / deadzone=21,11 / fast_pskip=0 / chroma_qp_offset=-3 / threads=12 / lookahead_threads=2 / sliced_threads=0 / nr=0 / decimate=0 / interlaced=0 / bluray_compat=0 / constrained_intra=0 / bframes=9 / b_pyramid=2 / b_adapt=2 / b_bias=0 / direct=3 / weightb=1 / open_gop=0 / weightp=2 / keyint=240 / keyint_min=23 / scenecut=40 / intra_refresh=0 / rc_lookahead=40 / rc=2pass / mbtree=1 / bitrate=9111 / ratetol=1.0 / qcomp=0.60 / qpmin=0 / qpmax=69 / qpstep=4 / cplxblur=20.0 / qblur=0.5 / ip_ratio=1.40 / aq=1:1.00
Язык : Russian
Default : Да
Forced : Нет

Аудио #1
Идентификатор : 2
Формат : AC-3
Формат/Информация : Audio Coding 3
Расширение режима : CM (complete main)
Параметр Endianness формата : Big
Идентификатор кодека : A_AC3
Продолжительность : 1 ч. 36 м.
Вид битрейта : Постоянный
Битрейт : 448 Кбит/сек
Каналы : 6 каналов
Расположение каналов : Front: L C R, Side: L R, LFE
Частота : 48,0 КГц
Битовая глубина : 16 бит
Метод сжатия : С потерями
Размер потока : 309 Мбайт (4%)
Язык : Russian
Default : Да
Forced : Нет

Аудио #2
Идентификатор : 3
Формат : DTS
Формат/Информация : Digital Theater Systems
Режим : 16
Параметр Endianness формата : Big
Идентификатор кодека : A_DTS
Продолжительность : 1 ч. 36 м.
Вид битрейта : Постоянный
Битрейт : 1509 Кбит/сек
Каналы : 6 каналов
Расположение каналов : Front: L C R, Side: L R, LFE
Частота : 48,0 КГц
Битовая глубина : 16 бит
Метод сжатия : С потерями
Размер потока : 1,02 Гбайт (14%)
Язык : Russian
Default : Нет
Forced : Нет

Текст
Идентификатор : 4
Формат : UTF-8
Идентификатор кодека : S_TEXT/UTF8
Идентификатор кодека/Информация : UTF-8 Plain Text
Заголовок : Full
Язык : English
Default : Нет
Forced : Нет

Меню
00:00:00.000 : ru:Chapter 01
00:08:07.458 : ru:Chapter 02
00:14:47.458 : ru:Chapter 03
00:24:51.125 : ru:Chapter 04
00:33:26.291 : ru:Chapter 05
00:38:05.083 : ru:Chapter 06
00:43:42.000 : ru:Chapter 07
00:54:05.916 : ru:Chapter 08
01:04:23.500 : ru:Chapter 09
01:12:20.416 : ru:Chapter 10
01:20:05.083 : ru:Chapter 11
01:28:45.208 : ru:Chapter 12
01:36:32.791 : ru:Chapter 13








Релиз от: Rip by:



   Похожие торренты   Торрент   Размер 
В этой теме нет новых непрочитанных сообщений. Горько! 2 (2014) BDRip от ExKinoRay | Лицензия

715 | 38

749.84 МБ

В этой теме нет новых непрочитанных сообщений. Горько! 2 (2014) BDRip-AVC от ExKinoRay | Лицензия

1840 | 59

1.89 ГБ

В этой теме нет новых непрочитанных сообщений. Горько! 2 (2014) BDRip от Twi7ter | Лицензия

1044 | 39

1.47 ГБ

В этой теме нет новых непрочитанных сообщений. Горько! 2 (2014) BDRip от HQCLUB | Лицензия

2115 | 90

1.45 ГБ

В этой теме нет новых непрочитанных сообщений. Горько! 2 (2014) BDRip 720p | Лицензия

1385 | 95

4.55 ГБ

В этой теме нет новых непрочитанных сообщений. Горько! Дилогия (2013-2014) BDRip-AVC от HELLYWOOD | Лицензия

230 | 100

5.78 ГБ

В этой теме нет новых непрочитанных сообщений. Горько! 2 (2014) BDRip 720p от Leonardo and Scarabey | iPad | Лицензия

515 | 59

2.2 ГБ




Вы не можете начинать темы
Вы не можете отвечать на сообщения
Вы не можете редактировать свои сообщения
Вы не можете удалять свои сообщения
Вы не можете добавлять вложения

Перейти:  
Для Мосгорсуда, Роскомнадзора и рекламодателей: mosgorsud-torrent[собачка]yandex.ru
 Вход
ppkBB3cker v.2 © 2008-2014 @ PPK
[ Time : 0.029s | 15 Queries | GZIP : Off ]

Торрент трекер RUTOR.IN, Не можете зайти на rutor.org? Какой новый адрес рутор? Какое зеркало рутор? Не работает rutor.org и зеркала? Тогда наш торрент специально для вас. Rutor.in неофициальное зеркало rutor. В случае если у Вас заблокирован rutor или вдруг Вы не можете на него зайти, то Вы без труда сможете скачать бесплатно и без рекламы последние новинки кино, игр, сериалов и прочего у нас, на Rutor.in. Не нужно использовать прокси, чтобы зайти на рутор, достаточно воспользоваться нашим ресурсом. Все новые фильмы, игры, сериалы, книги и музыка за 2013 и 2014 годы через торрент бесплатно. Скачивайте фильмы в хорошем качестве, игры для пк, xbox, playstation без регистрации. У нас вы найдете новые Зарубежные сериалы и Русские сериалы 2013, 2014, 2015 годов. Оставайтесь с нами, качайте любимые фильмы, игры, сериалы, книги и музыку.