img image001 image001 image001 image001 image001 image001 image001 image001 image001 image001 image001 image001 image001 image001 image001

Planets Sun Sun Sun
Статистика раздачи
Автор: Nickolas3434 | Размер: 1.45 ГБ | Добавлен: 13 дек 2014, 21:55
Раздают: 40    Качают: 8
Скачать торрент
Скачать торрент
Описание торрента

СообщениеДобавлено: 13 дек 2014, 21:55 

Страна: СССР
Производство: Мосфильм

Жанр: комедия
Год выпуска: 1939
Продолжительность: 01:21:24

Перевод: Не требуется
Cубтитры: нет
Оригинальная аудиодорожка: русский

Режиссер: Константин Юдин

В ролях:
Валентина Серова, Эмма Цесарская, Всеволод Санаев, Михаил Глузский, Андрей Тутышкин, Анатолий Соловьёв, Пётр Репнин, Сергей Блинников, Павел Оленев, Александр Антонов...

Описание:
В поисках истины и способа наказать директора — бюрократа, развалившего работу в некогда преуспевавшем дальневосточном зверосовхозе, лучшая работница хозяйства отправляется в Москву…





Источник: DVD5 R5
Качество видео: DVDRip
Формат видео: AVI

Виде: 672x496 (4:3), 25 fps, XviD ~ 2355 kbps avg, 0.283 bit/pixel
Аудио: 48 kHz, Dolby Digital AC3 2.0, 192 kbps

Раздача от:
Общее
Полное имя : Devywka.s.xarakterom.1939.DVDRip_[New-team]_by_AVP_Studio.avi
Формат : AVI
Формат/Информация : Audio Video Interleave
Размер файла : 1,45 Гбайт
Продолжительность : 1 ч. 21 м.
Общий поток : 2557 Кбит/сек
Программа кодирования : VirtualDubModRus 1.5.10.2 (build 2542/release)
Библиотека кодирования : VirtualDubMod build 2542/release

Видео
Идентификатор : 0
Формат : MPEG-4 Visual
Профиль формата : Advanced Simple@L5
Параметр BVOP формата : 1
Параметр QPel формата : Нет
Параметр GMC формата : Без точки перехода
Параметр матрицы формата : Выборочная
Идентификатор кодека : XVID
Идентификатор кодека/Подсказка : XviD
Продолжительность : 1 ч. 21 м.
Битрейт : 2355 Кбит/сек
Ширина : 672 пикселя
Высота : 496 пикселей
Соотношение сторон : 4:3
Частота кадров : 25,000 кадров/сек
Цветовое пространство : YUV
Субдискретизация насыщенности : 4:2:0
Битовая глубина : 8 бит
Тип развёртки : Прогрессивная
Метод сжатия : С потерями
Бит/(Пиксели*Кадры) : 0.283
Размер потока : 1,34 Гбайт (92%)
Библиотека кодирования : XviD 73

Аудио
Идентификатор : 1
Формат : AC-3
Формат/Информация : Audio Coding 3
Расширение режима : CM (complete main)
Параметр Endianness формата : Big
Идентификатор кодека : 2000
Продолжительность : 1 ч. 21 м.
Вид битрейта : Постоянный
Битрейт : 192 Кбит/сек
Каналы : 2 канала
Расположение каналов : Front: L R
Частота : 48,0 КГц
Битовая глубина : 16 бит
Метод сжатия : С потерями
Задержка видео : 27 мс.
Размер потока : 112 Мбайт (8%)
Выравнивание : Разделение по промежуткам
Продолжительность промежутка : 40 мс. (1,00 видеокадр)
Время предзагрузки промежутка : 500 мс





   Похожие торренты   Торрент   Размер 
В этой теме нет новых непрочитанных сообщений. Девушка с характером (1939) DVDRip-AVC от New-Team

132 | 12

1.46 ГБ

В этой теме нет новых непрочитанных сообщений. Девушка с характером (1939) DVDRip от New-Team

22 | 6

743.43 МБ

В этой теме нет новых непрочитанных сообщений. Девушка с характером (1939) VHSRip от Киномагия

15 | 2

613.33 МБ

В этой теме нет новых непрочитанных сообщений. Мойдодыр (1939,1954), Тараканище, Федорино горе, От двух до пяти, Ваня и крокодил, Краденое солнце (1939-1984) DVDRip-AVC от New-Team

417 | 39

1.46 ГБ

В этой теме нет новых непрочитанных сообщений. Мойдодыр (1939,1954), Тараканище, Федорино горе, От двух до пяти, Ваня и крокодил, Краденое солнце (1939-1984) DVDRip от New-Team

568 | 33

744.47 МБ

В этой теме нет новых непрочитанных сообщений. Мойдодыр (1939,1954), Тараканище, Федорино горе, От двух до пяти, Ваня и крокодил, Краденое солнце (1939-1984) DVDRip от New-Team

397 | 34

1.45 ГБ

В этой теме нет новых непрочитанных сообщений. Истребители (1939) DVDRip от New-Team

32 | 22

1.45 ГБ




Вы не можете начинать темы
Вы не можете отвечать на сообщения
Вы не можете редактировать свои сообщения
Вы не можете удалять свои сообщения
Вы не можете добавлять вложения

Перейти:  
Для Мосгорсуда, Роскомнадзора и рекламодателей: mosgorsud-torrent[собачка]yandex.ru
Настройки
ppkBB3cker v.2 © 2008-2014 @ PPK
[ Time : 0.021s | 16 Queries | GZIP : Off ]
CGP [Extreme] output time : 0.00021s | 0 Queries | GZIP : Off

Торрент трекер RUTOR.IN, Не можете зайти на rutor.org? Какой новый адрес рутор? Какое зеркало рутор? Не работает rutor.org и зеркала? Тогда наш торрент специально для вас. Rutor.in неофициальное зеркало rutor. В случае если у Вас заблокирован rutor или вдруг Вы не можете на него зайти, то Вы без труда сможете скачать бесплатно и без рекламы последние новинки кино, игр, сериалов и прочего у нас, на Rutor.in. Не нужно использовать прокси, чтобы зайти на рутор, достаточно воспользоваться нашим ресурсом. Все новые фильмы, игры, сериалы, книги и музыка за 2013 и 2014 годы через торрент бесплатно. Скачивайте фильмы в хорошем качестве, игры для пк, xbox, playstation без регистрации. У нас вы найдете новые Зарубежные сериалы и Русские сериалы 2013, 2014, 2015 годов. Оставайтесь с нами, качайте любимые фильмы, игры, сериалы, книги и музыку.