img image001 image001 image001 image001 image001 image001 image001 image001 image001 image001 image001 image001 image001 image001 image001

Planets Sun Sun Sun
Статистика раздачи
Автор: Nickolas3434 | Размер: 749.84 МБ | Добавлен: 14 дек 2014
Раздают: 715    Качают: 38
Скачать торрент
Скачать торрент
Описание торрента

СообщениеДобавлено: 14 дек 2014 

Информация о фильме
Название: Горько! 2
Год выхода: 2014
Жанр: комедия
Режиссер: Жора Крыжовников
В ролях: Сергей Светлаков, Юлия Александрова, Егор Корешков, Ян Цапник, Сергей Лавыгин, Елена Валюшкина, Александр Паль, Валентина Мазунина, Юлия Стадник, Александр Робак

О фильме: В надежде сорвать большой куш Наташин отчим идет на финансовую авантюру, чем подставляет своих партнеров по бизнесу. Без лишних слов те устраивают на него покушение. Вся семья скорбит по Борису Ивановичу… а он в гробу все это видел. Ему бы три дня пролежать и похороны пережить, а там родные откопают и можно спать спокойно. И все идет по плану уцелевшего отчима, пока проститься с ним не приезжает боевой товарищ. Рубаха-парень Витька Каравай мгновенно покоряет всю семью, перетягивая общее внимание на себя. Задетый за живое, покойник заставляет родных устроить роскошные поминки с участием Светлакова…



Выпущено: Россия / Базелевс Продакшн
Продолжительность: 01:36:24
Озвучивание: Оригинал

Файл
Качество: ВDRip
Формат: AVI
Видео кодек: XviD
Аудио кодек: AC-3
Видео: XviD, 885 Кбит/с, 640x336, 24 кадр/с
Аудио: АС3, 2 ch, 192 Кбит/с

Общее
Полное имя : D:ВидеоG0rk0.2.2014BDRip.750МB by ExKinoRay.avi
Формат : AVI
Формат/Информация : Audio Video Interleave
Размер файла : 750 Мбайт
Продолжительность : 1 ч. 36 м.
Общий поток : 1086 Кбит/сек
Программа кодирования : VirtualDubMod 1.5.10.3 (build 2550/release)
Библиотека кодирования : VirtualDubMod build 2550/release

Видео
Идентификатор : 0
Формат : MPEG-4 Visual
Профиль формата : Advanced Simple@L5
Параметр BVOP формата : 2
Параметр QPel формата : Нет
Параметр GMC формата : Без точки перехода
Параметр матрицы формата : Выборочная
Идентификатор кодека : XVID
Идентификатор кодека/Подсказка : XviD
Продолжительность : 1 ч. 36 м.
Битрейт : 885 Кбит/сек
Ширина : 640 пикселей
Высота : 336 пикселей
Соотношение сторон : 1,905
Частота кадров : 24,000 кадра/сек
Цветовое пространство : YUV
Субдискретизация насыщенности : 4:2:0
Битовая глубина : 8 бит
Тип развёртки : Прогрессивная
Метод сжатия : С потерями
Бит/(Пиксели*Кадры) : 0.171
Размер потока : 611 Мбайт (81%)
Библиотека кодирования : XviD 73

Аудио
Идентификатор : 1
Формат : AC-3
Формат/Информация : Audio Coding 3
Расширение режима : CM (complete main)
Параметр Endianness формата : Big
Идентификатор кодека : 2000
Продолжительность : 1 ч. 36 м.
Вид битрейта : Постоянный
Битрейт : 192 Кбит/сек
Каналы : 2 канала
Расположение каналов : Front: L R
Частота : 48,0 КГц
Битовая глубина : 16 бит
Метод сжатия : С потерями
Размер потока : 133 Мбайт (18%)
Выравнивание : Разделение по промежуткам
Продолжительность промежутка : 42 мс. (1,00 видеокадр)
Время предзагрузки промежутка : 500 мс.



Релиз от:



   Похожие торренты   Торрент   Размер 
В этой теме нет новых непрочитанных сообщений. Горько! 2 (2014) BDRip-AVC от ExKinoRay | Лицензия

1840 | 59

1.89 ГБ

В этой теме нет новых непрочитанных сообщений. Горько! 2 (2014) BDRip 1080p от ExKinoRay | Лицензия

1298 | 62

7.46 ГБ

В этой теме нет новых непрочитанных сообщений. Горько! 2 (2014) BDRip 720p | Лицензия

1385 | 95

4.55 ГБ

В этой теме нет новых непрочитанных сообщений. Горько! 2 (2014) BDRip от Twi7ter | Лицензия

1044 | 39

1.47 ГБ

В этой теме нет новых непрочитанных сообщений. Горько! 2 (2014) BDRip от HQCLUB | Лицензия

2115 | 90

1.45 ГБ

В этой теме нет новых непрочитанных сообщений. Горько! Дилогия (2013-2014) BDRip-AVC от HELLYWOOD | Лицензия

230 | 100

5.78 ГБ

В этой теме нет новых непрочитанных сообщений. Горько! 2 (2014) BDRip 720p от Leonardo and Scarabey | iPad | Лицензия

504 | 57

2.2 ГБ




Вы не можете начинать темы
Вы не можете отвечать на сообщения
Вы не можете редактировать свои сообщения
Вы не можете удалять свои сообщения
Вы не можете добавлять вложения

Перейти:  
Для Мосгорсуда, Роскомнадзора и рекламодателей: mosgorsud-torrent[собачка]yandex.ru
 Вход
ppkBB3cker v.2 © 2008-2014 @ PPK
[ Time : 0.049s | 16 Queries | GZIP : Off ]

Торрент трекер RUTOR.IN, Не можете зайти на rutor.org? Какой новый адрес рутор? Какое зеркало рутор? Не работает rutor.org и зеркала? Тогда наш торрент специально для вас. Rutor.in неофициальное зеркало rutor. В случае если у Вас заблокирован rutor или вдруг Вы не можете на него зайти, то Вы без труда сможете скачать бесплатно и без рекламы последние новинки кино, игр, сериалов и прочего у нас, на Rutor.in. Не нужно использовать прокси, чтобы зайти на рутор, достаточно воспользоваться нашим ресурсом. Все новые фильмы, игры, сериалы, книги и музыка за 2013 и 2014 годы через торрент бесплатно. Скачивайте фильмы в хорошем качестве, игры для пк, xbox, playstation без регистрации. У нас вы найдете новые Зарубежные сериалы и Русские сериалы 2013, 2014, 2015 годов. Оставайтесь с нами, качайте любимые фильмы, игры, сериалы, книги и музыку.
cron