img image001 image001 image001 image001 image001 image001 image001 image001 image001 image001 image001 image001 image001 image001 image001

Planets Sun Sun Sun
Статистика раздачи
Автор: Nickolas3434 | Размер: 1.56 ГБ | Добавлен: 15 дек 2014
Раздают: 2158    Качают: 125
Скачать торрент
Скачать торрент
Описание торрента

СообщениеДобавлено: 15 дек 2014 

Информация о фильме
Название: Василиса
Год выхода: 2014
Жанр: история, мелодрама
Режиссер: Антон Сиверс
В ролях: Светлана Ходченкова, Дмитрий Соломыкин, Жером Кузан, Кристина Кузьмина, Игорь Черневич, Андрей Ильин, Ирина Розанова, Илья Носков, Андрей Носков, Жоанн Морио

О фильме: «Моя любовь. Моя война. Моё отечество»
Он дворянин, а она — крепостная крестьянка… Им не суждено быть вместе. Возможно, так и закончилась бы эта любовная история, если бы не ВОЙНА. Наполеон вторгся в пределы Российской Империи, и этот день изменил привычный уклад и сословные предрассудки. Мир больше никогда не станет прежним. Война пишет новую историю любви


Страна: Россия
Студия: Всемирные Русские Студии
Продолжительность: 01:35:54
Перевод: Оригинал

Файл
Кодек: MPEG-4 AVC (MKV)
Качество: WEBRip-AVC
Видео: AVC, 1024x576, 2038 Kbps
Звук: AC3, 256 kb/s (2 ch)
Субтитры: нет

Семпл

General
Unique ID : 249174696155679046313269617953118942579 (0xBB754D05E17124C6B05A16AFB9BCF573)
Complete name : H: Василиса (2014) WEBRip-AVC.mkv
Format : Matroska
Format version : Version 4 / Version 2
File size : 1.56 GiB
Duration : 1h 35mn
Overall bit rate : 2 330 Kbps
Encoded date : UTC 2014-12-14 05:16:10
Writing application : mkvmerge v7.0.0 ('Where We Going') 64bit built on Jun 9 2014 15:16:27
Writing library : libebml v1.3.0 + libmatroska v1.4.1
DURATION : 01:35:54.016000000
NUMBER_OF_FRAMES : 179813
NUMBER_OF_BYTES : 184128512
_STATISTICS_WRITING_APP : mkvmerge v7.0.0 ('Where We Going') 64bit built on Jun 9 2014 15:16:27
_STATISTICS_WRITING_DATE_UTC : 2014-12-14 05:16:10
_STATISTICS_TAGS : BPS DURATION NUMBER_OF_FRAMES NUMBER_OF_BYTES

Video
ID : 1
Format : AVC
Format/Info : Advanced Video Codec
Format profile : Main@L4.1
Format settings, CABAC : Yes
Format settings, ReFrames : 6 frames
Codec ID : V_MPEG4/ISO/AVC
Duration : 1h 35mn
Bit rate : 2 028 Kbps
Width : 1 024 pixels
Height : 576 pixels
Display aspect ratio : 16:9
Frame rate mode : Constant
Frame rate : 24.000 fps
Color space : YUV
Chroma subsampling : 4:2:0
Bit depth : 8 bits
Scan type : Progressive
Bits/(Pixel*Frame) : 0.143
Stream size : 1.36 GiB (87%)
Default : Yes
Forced : No

Audio
ID : 2
Format : AC-3
Format/Info : Audio Coding 3
Mode extension : CM (complete main)
Format settings, Endianness : Big
Codec ID : A_AC3
Duration : 1h 35mn
Bit rate mode : Constant
Bit rate : 256 Kbps
Channel(s) : 2 channels
Channel positions : Front: L R
Sampling rate : 48.0 KHz
Bit depth : 16 bits
Compression mode : Lossy
Stream size : 176 MiB (11%)
Default : Yes
Forced : No



Релиз от:



   Похожие торренты   Торрент   Размер 
В этой теме нет новых непрочитанных сообщений. Василиса (2014) WEBRip

6263 | 244

1.37 ГБ

В этой теме нет новых непрочитанных сообщений. Василиса (2014) WEBRip

958 | 26

699.8 МБ

В этой теме нет новых непрочитанных сообщений. Василиса (2014) DVD-9

100 | 12

5.82 ГБ

В этой теме нет новых непрочитанных сообщений. Василиса (2014) CAMRip

2583 | 80

1.3 ГБ

В этой теме нет новых непрочитанных сообщений. Василиса (2014) WEB-DLRip | iTunes

2349 | 114

1.37 ГБ

В этой теме нет новых непрочитанных сообщений. Василиса (2014) Blu-ray 1080p | Лицензия

32 | 34

18.55 ГБ

В этой теме нет новых непрочитанных сообщений. Василиса (2014) WEB-DL 720p | iTunes

2881 | 148

3.12 ГБ




Вы не можете начинать темы
Вы не можете отвечать на сообщения
Вы не можете редактировать свои сообщения
Вы не можете удалять свои сообщения
Вы не можете добавлять вложения

Перейти:  
Для Мосгорсуда, Роскомнадзора и рекламодателей: mosgorsud-torrent[собачка]yandex.ru
 Вход
ppkBB3cker v.2 © 2008-2014 @ PPK
[ Time : 0.032s | 16 Queries | GZIP : Off ]

Торрент трекер RUTOR.IN, Не можете зайти на rutor.org? Какой новый адрес рутор? Какое зеркало рутор? Не работает rutor.org и зеркала? Тогда наш торрент специально для вас. Rutor.in неофициальное зеркало rutor. В случае если у Вас заблокирован rutor или вдруг Вы не можете на него зайти, то Вы без труда сможете скачать бесплатно и без рекламы последние новинки кино, игр, сериалов и прочего у нас, на Rutor.in. Не нужно использовать прокси, чтобы зайти на рутор, достаточно воспользоваться нашим ресурсом. Все новые фильмы, игры, сериалы, книги и музыка за 2013 и 2014 годы через торрент бесплатно. Скачивайте фильмы в хорошем качестве, игры для пк, xbox, playstation без регистрации. У нас вы найдете новые Зарубежные сериалы и Русские сериалы 2013, 2014, 2015 годов. Оставайтесь с нами, качайте любимые фильмы, игры, сериалы, книги и музыку.