img image001 image001 image001 image001 image001 image001 image001 image001 image001 image001 image001 image001 image001 image001 image001

Planets Sun Sun Sun
Статистика раздачи
Автор: Nickolas3434 | Размер: 1.09 ГБ | Добавлен: 15 дек 2014
Раздают: 26    Качают: 20
Скачать торрент
Скачать торрент
Описание торрента

СообщениеДобавлено: 15 дек 2014 

Страна: СССР
Производство: Мосфильм

Жанр: фэнтези, семейный
Год выпуска: 1939
Продолжительность: 01:18:40

Перевод: Не требуется
Cубтитры: нет
Оригинальная аудиодорожка: русский

Режиссер: Александр Птушко

В ролях:
А.Шагин, Сергей Мартинсон, Г.Уваров, Николай Боголюбов, Ольга Шаганова-Образцова, Тамара Адельгейм, Р.Хаирова, М.Дагмаров, Николай Мичурин, В.Краснощеков...

Описание:
Именам главных героев: папы Карло, Буратино, Дуремара, черепахи Тортиллы и других персонажей этого произведения суждено было стать нарицательными — столь велика оказалась популярность этой сказки…
Фильм, в котором вместе с живыми актерами играют и куклы, поставлен знаменитым режиссером, признанным мастером "сказочного" жанра Александром Птушко по одноименной сказке Алексея Толстого.





Источник: DVD5 R5
Качество видео: DVDRip
Формат видео: AVI

Виде: 688x512 (4:3), 25 fps, XviD ~ 1786 kbps avg, 0.203 bit/pixel
Аудио: 48 kHz, Dolby Digital AC3 2.0, 192 kbps

Раздача от:
Общее
Полное имя : Zolotoy.klyuchik.1939.DVDRip_[New-team]_by_AVP_Studio.avi
Формат : AVI
Формат/Информация : Audio Video Interleave
Размер файла : 1,09 Гбайт
Продолжительность : 1 ч. 18 м.
Общий поток : 1988 Кбит/сек
Программа кодирования : VirtualDubModRus 1.5.10.2 (build 2542/release)
Библиотека кодирования : VirtualDubMod build 2542/release

Видео
Идентификатор : 0
Формат : MPEG-4 Visual
Профиль формата : Advanced Simple@L5
Параметр BVOP формата : 1
Параметр QPel формата : Нет
Параметр GMC формата : Без точки перехода
Параметр матрицы формата : Выборочная
Идентификатор кодека : XVID
Идентификатор кодека/Подсказка : XviD
Продолжительность : 1 ч. 18 м.
Битрейт : 1786 Кбит/сек
Ширина : 688 пикселей
Высота : 512 пикселей
Соотношение сторон : 4:3
Частота кадров : 25,000 кадров/сек
Цветовое пространство : YUV
Субдискретизация насыщенности : 4:2:0
Битовая глубина : 8 бит
Тип развёртки : Прогрессивная
Метод сжатия : С потерями
Бит/(Пиксели*Кадры) : 0.203
Размер потока : 1005 Мбайт (90%)
Библиотека кодирования : XviD 73

Аудио
Идентификатор : 1
Формат : AC-3
Формат/Информация : Audio Coding 3
Расширение режима : CM (complete main)
Параметр Endianness формата : Big
Идентификатор кодека : 2000
Продолжительность : 1 ч. 18 м.
Вид битрейта : Постоянный
Битрейт : 192 Кбит/сек
Каналы : 2 канала
Расположение каналов : Front: L R
Частота : 48,0 КГц
Битовая глубина : 16 бит
Метод сжатия : С потерями
Размер потока : 108 Мбайт (10%)
Выравнивание : Разделение по промежуткам
Продолжительность промежутка : 40 мс. (1,00 видеокадр)
Время предзагрузки промежутка : 500 мс





   Похожие торренты   Торрент   Размер 
В этой теме нет новых непрочитанных сообщений. Золотой ключик (1939) DVDRip от New-Team

39 | 22

744.25 МБ

В этой теме нет новых непрочитанных сообщений. Золотой ключик (1939) DVDRip-AVC от New-Team

45 | 9

1.09 ГБ

В этой теме нет новых непрочитанных сообщений. Золотой ключик (1939) DVDRip

54 | 7

1.37 ГБ

В этой теме нет новых непрочитанных сообщений. Золотой ключик (2008) DVDRip

19 | 5

745.25 МБ

В этой теме нет новых непрочитанных сообщений. ТВ-мюзикл «Золотой ключик» (2009) SATRip

64 | 63

1.07 ГБ

В этой теме нет новых непрочитанных сообщений. Алексей Толстой - Золотой ключик, или Приключения Буратино (2007) (Библиофоника) MP3

18 | 8

229.19 МБ

В этой теме нет новых непрочитанных сообщений. Мойдодыр (1939,1954), Тараканище, Федорино горе, От двух до пяти, Ваня и крокодил, Краденое солнце (1939-1984) DVDRip-AVC от New-Team

401 | 36

1.46 ГБ




Вы не можете начинать темы
Вы не можете отвечать на сообщения
Вы не можете редактировать свои сообщения
Вы не можете удалять свои сообщения
Вы не можете добавлять вложения

Перейти:  
Для Мосгорсуда, Роскомнадзора и рекламодателей: mosgorsud-torrent[собачка]yandex.ru
 Вход
ppkBB3cker v.2 © 2008-2014 @ PPK
[ Time : 0.022s | 18 Queries | GZIP : Off ]

cron