img image001 image001 image001 image001 image001 image001 image001 image001 image001 image001 image001 image001 image001 image001 image001

Planets Sun Sun Sun
Статистика раздачи
Автор: Nickolas3434 | Размер: 3.16 ГБ | Добавлен: 14 дек 2014, 21:31
Раздают: 807    Качают: 51
Скачать торрент
Скачать торрент
Описание торрента

СообщениеДобавлено: 14 дек 2014, 21:31 

Информация о фильме
Название: Солнечный удар
Год выхода: 2014
Жанр: Драма
Режиссер: Никита Михалков
В ролях: Мартиньш Калита, Виктория Соловьева, Сергей Серов, Алёна Спивак-Бычкова, Наталья Суркова, Денис Васильев, Ксения Попович, Олег Граф, Вадим Головко, Андрей Попович

О фильме: «Как всё это случилось?»
Всего одна ночь с незнакомкой становится для главного героя настоящим наваждением. Этот «солнечный удар» не отпускает его даже в самые «окаянные дни» гибели Российской Империи…


Страна: Россия
Студия: Студия Тритэ
Продолжительность: 02:53:00
Перевод: Оригинал – Лицензия

Файл
Кодек: MPEG-4 AVC (MKV)
Качество: HDRip-AVC
Видео: MPEG-4 AVC, 1024x424, 2047 Kbps
Звук: AC-3, 6 ch, 512 Kbps
Субтитры: нет

Семпл

General
Unique ID : 177888067560729923603908345345222583830 (0x85D3FEE01046F323B9A417D60FCB2616)
Complete name : H: Solnechniy udar (2014) HDRip-AVC.mkv
Format : Matroska
Format version : Version 4 / Version 2
File size : 3.16 GiB
Duration : 2h 53mn
Overall bit rate : 2 611 Kbps
Encoded date : UTC 2014-12-14 14:23:50
Writing application : mkvmerge v7.0.0 ('Where We Going') 64bit built on Jun 9 2014 15:16:27
Writing library : libebml v1.3.0 + libmatroska v1.4.1
DURATION : 02:53:00.192000000
NUMBER_OF_FRAMES : 324381
NUMBER_OF_BYTES : 664332288
_STATISTICS_WRITING_APP : mkvmerge v7.0.0 ('Where We Going') 64bit built on Jun 9 2014 15:16:27
_STATISTICS_WRITING_DATE_UTC : 2014-12-14 14:23:50
_STATISTICS_TAGS : BPS DURATION NUMBER_OF_FRAMES NUMBER_OF_BYTES

Video
ID : 1
Format : AVC
Format/Info : Advanced Video Codec
Format profile : Main@L4.1
Format settings, CABAC : Yes
Format settings, ReFrames : 6 frames
Codec ID : V_MPEG4/ISO/AVC
Duration : 2h 53mn
Bit rate : 2 047 Kbps
Width : 1 024 pixels
Height : 424 pixels
Display aspect ratio : 2.40:1
Frame rate mode : Constant
Frame rate : 24.000 fps
Color space : YUV
Chroma subsampling : 4:2:0
Bit depth : 8 bits
Scan type : Progressive
Bits/(Pixel*Frame) : 0.196
Stream size : 2.47 GiB (78%)
Language : English
Default : Yes
Forced : No

Audio
ID : 2
Format : AC-3
Format/Info : Audio Coding 3
Mode extension : CM (complete main)
Format settings, Endianness : Big
Codec ID : A_AC3
Duration : 2h 53mn
Bit rate mode : Constant
Bit rate : 512 Kbps
Channel(s) : 6 channels
Channel positions : Front: L C R, Side: L R, LFE
Sampling rate : 48.0 KHz
Bit depth : 16 bits
Compression mode : Lossy
Stream size : 634 MiB (20%)
Language : Russian
Default : Yes
Forced : No


Релиз от:



   Похожие торренты   Торрент   Размер 
В этой теме нет новых непрочитанных сообщений. Солнечный удар (2014) DVDRip-AVC от New-Team | лицензия

202 | 13

2.91 ГБ

В этой теме нет новых непрочитанных сообщений. Солнечный удар (2014) DVDRip от New-Team | лицензия

446 | 24

2.19 ГБ

В этой теме нет новых непрочитанных сообщений. Солнечный удар (2014) DVD9 от New-Team | Лицензия

206 | 19

7.05 ГБ

В этой теме нет новых непрочитанных сообщений. Солнечный удар (2014) DVDRip от New-Team | лицензия

858 | 94

1.46 ГБ

В этой теме нет новых непрочитанных сообщений. Тепловой удар / Солнечный удар / Heatstroke (2013) BDRip 1080p от NovaLan

147 | 42

7.39 ГБ

В этой теме нет новых непрочитанных сообщений. Тепловой удар / Солнечный удар / Heatstroke (2013) BDRemux 1080p от NovaLan

31 | 23

18.49 ГБ

В этой теме нет новых непрочитанных сообщений. Тепловой удар / Солнечный удар / Heatstroke (2013) BDRip | L1

144 | 8

1.42 ГБ




Вы не можете начинать темы
Вы не можете отвечать на сообщения
Вы не можете редактировать свои сообщения
Вы не можете удалять свои сообщения
Вы не можете добавлять вложения

Перейти:  
Для Мосгорсуда, Роскомнадзора и рекламодателей: mosgorsud-torrent[собачка]yandex.ru
Настройки
ppkBB3cker v.2 © 2008-2014 @ PPK
[ Time : 0.046s | 15 Queries | GZIP : Off ]
CGP [Extreme] output time : 0.00013s | 0 Queries | GZIP : Off

Торрент трекер RUTOR.IN, Не можете зайти на rutor.org? Какой новый адрес рутор? Какое зеркало рутор? Не работает rutor.org и зеркала? Тогда наш торрент специально для вас. Rutor.in неофициальное зеркало rutor. В случае если у Вас заблокирован rutor или вдруг Вы не можете на него зайти, то Вы без труда сможете скачать бесплатно и без рекламы последние новинки кино, игр, сериалов и прочего у нас, на Rutor.in. Не нужно использовать прокси, чтобы зайти на рутор, достаточно воспользоваться нашим ресурсом. Все новые фильмы, игры, сериалы, книги и музыка за 2013 и 2014 годы через торрент бесплатно. Скачивайте фильмы в хорошем качестве, игры для пк, xbox, playstation без регистрации. У нас вы найдете новые Зарубежные сериалы и Русские сериалы 2013, 2014, 2015 годов. Оставайтесь с нами, качайте любимые фильмы, игры, сериалы, книги и музыку.