img image001 image001 image001 image001 image001 image001 image001 image001 image001 image001 image001 image001 image001 image001 image001

Planets Sun Sun Sun
Статистика раздачи
Автор: Nickolas3434 | Размер: 5.79 ГБ | Добавлен: 17 дек 2014, 02:57
Раздают: 41    Качают: 12
Скачать торрент
Скачать торрент
Описание торрента

СообщениеДобавлено: 17 дек 2014, 02:57 

Информация о фильме
Оригинальное название: Тёмный мир: Равновесие
Год выхода: 2013
Жанр: Фэнтези, приключения
Режиссер: Олег Асадулин
В ролях: Мария Пирогова, Павел Прилучный, Макар Запорожский, Евгения Брик, Александр Ратников, Владислав Абашин, Петр Семак, Алиса Хазанова, Валерий Опёнкин, Тимофей Носков
О фильме:
Два мира живут параллельной жизнью – мир людей и Темный мир. Однако в то время, как люди продолжают жить в обычном ритме, тени начинают свободно проникать в наш мир. Эти существа, голодные и замерзшие, питаются жизненной силой человечества. Забирая его радость, любовь, тепло и положительные эмоции, они все больше набираются сил, так что Портал, разделяющий миры, эта тонкая грань, уже скоро может быть разрушена. Небольшая команда посвященных пытается дать отпор теням, но силы героев картины «Тёмный мир: Равновесие» слишком малы. Чтобы выжить, люди должны бороться сами. Лишь сумев обратиться к своим внутренним возможностям, к своим самым лучшим чувствам и эмоциям, они смогут спастись.

Страна: Россия
Студия: Централ Партнершип
Продолжительность: 01:31:34
Язык: Русский
Файл
Кодек: MPEG-4 AVC
Качество: HDTV 1080i
Видео: 8148 Кбит/с, 1920x1080, 25.000 кадр/с
Звук: Русский (АС3, 6 ch, 448 Кбит/с)
Семпл

Общее
Идентификатор : 20 (0x14)
Полное имя : Temnyj.mir.ravnovesie.2013.HDTV(1080i).MediaClub.ts
Формат : MPEG-TS
Размер файла : 5,79 Гбайт
Продолжительность : 1 ч. 31 м.
Режим общего битрейта : Переменный
Общий поток : 9048 Кбит/сек
Видео
Идентификатор : 302 (0x12E)
Идентификатор меню : 20102 (0x4E86)
Формат : AVC
Формат/Информация : Advanced Video Codec
Профиль формата : High@L4.0
Параметр CABAC формата : Да
Параметр ReFrames формата : 4 кадра
Идентификатор кодека : 27
Продолжительность : 1 ч. 31 м.
Битрейт : 8148 Кбит/сек
Ширина : 1920 пикселей
Высота : 1080 пикселей
Соотношение сторон : 16:9
Частота кадров : 25,000 кадров/сек
Стандарт вещания : Component
Цветовое пространство : YUV
Субдискретизация насыщенности : 4:2:0
Битовая глубина : 8 бит
Тип развёртки : Чересстрочная
Порядок развёртки : Верхнее поле первое
Бит/(Пиксели*Кадры) : 0.157
Размер потока : 5,21 Гбайт (90%)
Основные цвета : BT.709
Характеристики трансфера : BT.709
Коэффициенты матрицы : BT.709
Аудио
Идентификатор : 402 (0x192)
Идентификатор меню : 20102 (0x4E86)
Формат : AC-3
Формат/Информация : Audio Coding 3
Расширение режима : CM (complete main)
Параметр Endianness формата : Big
Идентификатор кодека : 6
Продолжительность : 1 ч. 31 м.
Вид битрейта : Постоянный
Битрейт : 448 Кбит/сек
Каналы : 6 каналов
Расположение каналов : Front: L C R, Side: L R, LFE
Частота : 48,0 КГц
Битовая глубина : 16 бит
Метод сжатия : С потерями
Задержка видео : -1 с. 8 мс.
Размер потока : 293 Мбайт (5%)
Язык : Russian
Язык, дополнительно : Clean effects
Меню
Идентификатор : 2002 (0x7D2)
Идентификатор меню : 20102 (0x4E86)
Продолжительность : 1 ч. 31 м.
Список : 302 (0x12E) (AVC) / 402 (0x192) (AC-3, Russian)
Язык : / Russian

Жорж, 2014 год
Номинации (1):
Лучший российский экшн

Релиз от:



   Похожие торренты   Торрент   Размер 
В этой теме нет новых непрочитанных сообщений. Тёмный мир: Равновесие (2013) WEB-DLRip | КПК | от -=HD-NET=-

11 | 2

383.74 МБ

В этой теме нет новых непрочитанных сообщений. Тёмный мир: Равновесие (2013) WEB-DL 720p

126 | 8

3.02 ГБ

В этой теме нет новых непрочитанных сообщений. Тёмный мир: Равновесие (2013) WEB-DLRip

93 | 3

1.46 ГБ

В этой теме нет новых непрочитанных сообщений. Тёмный мир: Равновесие (2013) HDRip от Шкипер

95 | 11

746.06 МБ

В этой теме нет новых непрочитанных сообщений. Тёмный мир: Равновесие (2013) WEBRip от R.G.RealMT | КПК

38 | 3

810.69 МБ

В этой теме нет новых непрочитанных сообщений. Тёмный мир: Равновесие (2013) HD 1080p | Тизер

0 | 3

22.19 МБ

В этой теме нет новых непрочитанных сообщений. Тёмный мир: Равновесие (2013) НDRip от BitTracker | Лицензия

113 | 10

1.45 ГБ




Вы не можете начинать темы
Вы не можете отвечать на сообщения
Вы не можете редактировать свои сообщения
Вы не можете удалять свои сообщения
Вы не можете добавлять вложения

Перейти:  
Для Мосгорсуда, Роскомнадзора и рекламодателей: mosgorsud-torrent[собачка]yandex.ru
Настройки
ppkBB3cker v.2 © 2008-2014 @ PPK
[ Time : 0.560s | 14 Queries | GZIP : Off ]
CGP [Extreme] output time : 0.00026s | 0 Queries | GZIP : Off

Торрент трекер RUTOR.IN, Не можете зайти на rutor.org? Какой новый адрес рутор? Какое зеркало рутор? Не работает rutor.org и зеркала? Тогда наш торрент специально для вас. Rutor.in неофициальное зеркало rutor. В случае если у Вас заблокирован rutor или вдруг Вы не можете на него зайти, то Вы без труда сможете скачать бесплатно и без рекламы последние новинки кино, игр, сериалов и прочего у нас, на Rutor.in. Не нужно использовать прокси, чтобы зайти на рутор, достаточно воспользоваться нашим ресурсом. Все новые фильмы, игры, сериалы, книги и музыка за 2013 и 2014 годы через торрент бесплатно. Скачивайте фильмы в хорошем качестве, игры для пк, xbox, playstation без регистрации. У нас вы найдете новые Зарубежные сериалы и Русские сериалы 2013, 2014, 2015 годов. Оставайтесь с нами, качайте любимые фильмы, игры, сериалы, книги и музыку.