img image001 image001 image001 image001 image001 image001 image001 image001 image001 image001 image001 image001 image001 image001 image001

Planets Sun Sun Sun
Статистика раздачи
Автор: Nickolas3434 | Размер: 744.63 МБ | Добавлен: 17 дек 2014
Раздают: 14    Качают: 7
Скачать торрент
Скачать торрент
Описание торрента

СообщениеДобавлено: 17 дек 2014 

Страна: СССР
Производство: Союздетфильм
Жанр: комедия
Год выпуска: 1940
Продолжительность: 1:17:19
Перевод: Не требуется
Cубтитры: нет
Оригинальная аудиодорожка: русский
Режиссер: Василий Журавлев
В ролях:
Николай Анненков, Виктор Громов, Сергей Столяров, Михаил Трояновский, Сергей Комаров, Лев Фенин, Андрей Файт, Петр Соболевский, Николай Горлов, Иван Бобров...
Описание:
Журнал «Эпроновец» печатает волнующую повесть о таинственном исчезновении в годы гражданской войны океанического парохода «Орел». На экране оживают страницы повести…






Источник: DVD5 R5
Качество видео: DVDRip
Формат видео: AVI
Виде: 640x480 (4:3), 25 fps, XviD ~ 1209 kbps avg, 0.157 bit/pixel
Аудио: 48 kHz, MP3 2.0, 128 kbps
Раздача от:
Общее
Полное имя : Gibel«Orla».1940.DVDRip-745_[New-team]_by_AVP_Studio.avi
Формат : AVI
Формат/Информация : Audio Video Interleave
Размер файла : 745 Мбайт
Продолжительность : 1 ч. 17 м.
Общий поток : 1346 Кбит/сек
Программа кодирования : VirtualDubModRus 1.5.10.2 (build 2542/release)
Библиотека кодирования : VirtualDubMod build 2542/release
Видео
Идентификатор : 0
Формат : MPEG-4 Visual
Профиль формата : Advanced Simple@L5
Параметр BVOP формата : 1
Параметр QPel формата : Нет
Параметр GMC формата : Без точки перехода
Параметр матрицы формата : Выборочная
Идентификатор кодека : XVID
Идентификатор кодека/Подсказка : XviD
Продолжительность : 1 ч. 17 м.
Битрейт : 1209 Кбит/сек
Ширина : 640 пикселей
Высота : 480 пикселей
Соотношение сторон : 4:3
Частота кадров : 25,000 кадров/сек
Цветовое пространство : YUV
Субдискретизация насыщенности : 4:2:0
Битовая глубина : 8 бит
Тип развёртки : Прогрессивная
Метод сжатия : С потерями
Бит/(Пиксели*Кадры) : 0.157
Размер потока : 668 Мбайт (90%)
Библиотека кодирования : XviD 73
Аудио
Идентификатор : 1
Формат : MPEG Audio
Версия формата : Version 1
Профиль формата : Layer 3
Идентификатор кодека : 55
Идентификатор кодека/Подсказка : MP3
Продолжительность : 1 ч. 17 м.
Вид битрейта : Постоянный
Битрейт : 128 Кбит/сек
Каналы : 2 канала
Частота : 48,0 КГц
Метод сжатия : С потерями
Размер потока : 70,8 Мбайт (10%)
Выравнивание : Соединение по промежуткам
Продолжительность промежутка : 40 мс. (1,00 видеокадр)
Время предзагрузки промежутка : 504 мс.
Библиотека кодирования : LAME3.99r
Настройки программы : -m s -V 4 -q 2 -lowpass 17 -b 128





   Похожие торренты   Торрент   Размер 
В этой теме нет новых непрочитанных сообщений. Гибель «Орла» (1940) DVDRip от New-Team

31 | 3

1.09 ГБ

В этой теме нет новых непрочитанных сообщений. Гибель «Орла» (1940) DVDRip-AVC от New-Team

30 | 3

1.09 ГБ

В этой теме нет новых непрочитанных сообщений. Змея в тени орла / Тень орла / Se ying diu sau / Snake in the Eagle's Shadow (1978) DVDRip

7 | 2

1.23 ГБ

В этой теме нет новых непрочитанных сообщений. Орден Чёрного Орла / Закон Чёрного Орла / The Order of the Black Eagle (1987) TVRip | НТВ+

0 | 2

4.02 ГБ

В этой теме нет новых непрочитанных сообщений. Орден Чёрного Орла / Закон Чёрного Орла / The Order of the Black Eagle (1987) SATRip | НТВ+

0 | 4

1.44 ГБ

В этой теме нет новых непрочитанных сообщений. 60 дней (1940) DVDRip от New-Team

58 | 12

1.09 ГБ

В этой теме нет новых непрочитанных сообщений. 60 дней (1940) DVDRip-AVC от New-Team

45 | 11

1.12 ГБ




Вы не можете начинать темы
Вы не можете отвечать на сообщения
Вы не можете редактировать свои сообщения
Вы не можете удалять свои сообщения
Вы не можете добавлять вложения

Перейти:  
Для Мосгорсуда, Роскомнадзора и рекламодателей: mosgorsud-torrent[собачка]yandex.ru
 Вход
ppkBB3cker v.2 © 2008-2014 @ PPK
[ Time : 0.047s | 16 Queries | GZIP : Off ]

cron