img image001 image001 image001 image001 image001 image001 image001 image001 image001 image001 image001 image001 image001 image001 image001

Planets Sun Sun Sun
Статистика раздачи
Автор: Nickolas3434 | Размер: 2.95 ГБ | Добавлен: 17 дек 2014
Раздают: 56    Качают: 7
Скачать торрент
Скачать торрент
Описание торрента

СообщениеДобавлено: 17 дек 2014 

Информация о фильме
Название: О спорт, ты — мир!
Год выхода: 1980
Жанр: документальный, спорт
Режиссер: Озеров Юрий, Рычков Борис, Хитрук Федор
Авторы сценария: Юрий Озеров, Борис Рычков
Автор закадрового текста и текстов песен : Николай Добронравов
Композитор: Александра Пахмутова
Исполнители песен: Татьяна Анциферова, Сергей Беликов, Лев Лещенко, София Ротару, Муслим Магомаев, Александр Градский, Людмила Гурченко.
Закадровый текст читает Николай Озеров
О фильме:
Художественно-документальный фильм с включением мультипликации (режиссёр Фёдор Хитрук) о московских Олимпийских играх 1980 года. Будучи руководителем творческого объединения «Олимпиада-80», режиссёр Юрий Николаевич Озеров по заказу Международного Олимпийского комитета создал официальный фильм о Московской Олимпиаде «О спорт, ты — мир!» Динамичный, насыщенный напряжённейшими спортивными состязаниями, переданными глазами участников и зрителей, фильм заканчивался трогательными кадрами о прощании с олимпийским Мишкой. Музыку к фильму написала Александра Пахмутова. Картина получила одобрение и высокую оценку Международного Олимпийского комитета, а Юрию Озерову была присуждена Государственная премия СССР.

Страна: CCCР
Студия: Мосфильм
Продолжительность: 02:21:27.000
Перевод: не требуется
Файл
Кодек: h.264
Качество: DVDRip-AVC
Видео: 704x528 (4:3), 25.000 fps, AVC, ~2668 Kbps, 0.287 bits/pixel
Звук:
Русский, 48.0 KHz, AC3, 1 ch, 128 Kbps ОРИГИНАЛ
Английский, 48.0 KHz, AC3, 2 ch, 192 Kbps ДУБЛЯЖ
Субтитры: нет
Общее
Уникальный идентификатор : 230746642688993855342070830420033943882 (0xAD982FD6DA848ACEB7E57A25F262394A)
Полное имя : G:FILMSO_sport_ti_mir.1980.DVDRip-AVC.mkv
Формат : Matroska
Версия формата : Version 4 / Version 2
Размер файла : 2,95 Гбайт
Продолжительность : 2 ч. 21 м.
Общий поток : 2990 Кбит/сек
Дата кодирования : UTC 2014-12-15 15:35:51
Программа кодирования : mkvmerge v7.4.0 ('Circles') 64bit built on Dec 12 2014 12:19:56
Библиотека кодирования : libebml v1.3.0 + libmatroska v1.4.1
DURATION : 02:21:26.976000000
NUMBER_OF_FRAMES : 265218
NUMBER_OF_BYTES : 203687424
_STATISTICS_WRITING_APP : mkvmerge v7.4.0 ('Circles') 64bit built on Dec 12 2014 12:19:56
_STATISTICS_WRITING_DATE_UTC : 2014-12-15 15:35:51
_STATISTICS_TAGS : BPS DURATION NUMBER_OF_FRAMES NUMBER_OF_BYTES
Видео
Идентификатор : 1
Формат : AVC
Формат/Информация : Advanced Video Codec
Профиль формата : High@L4.1
Параметр CABAC формата : Да
Параметр ReFrames формата : 16 кадров
Идентификатор кодека : V_MPEG4/ISO/AVC
Продолжительность : 2 ч. 21 м.
Битрейт : 2668 Кбит/сек
Ширина : 704 пикселя
Высота : 528 пикселей
Соотношение сторон : 4:3
Режим частоты кадров : Постоянный
Частота кадров : 25,000 кадров/сек
Цветовое пространство : YUV
Субдискретизация насыщенности : 4:2:0
Битовая глубина : 8 бит
Тип развёртки : Прогрессивная
Бит/(Пиксели*Кадры) : 0.287
Размер потока : 2,58 Гбайт (87%)
Библиотека кодирования : x264 core 142 r2431 ac76440
Настройки программы : cabac=1 / ref=16 / deblock=1:0:0 / analyse=0x3:0x133 / me=umh / subme=10 / psy=1 / psy_rd=1.10:0.10 / mixed_ref=1 / me_range=32 / chroma_me=1 / trellis=2 / 8x8dct=1 / cqm=0 / deadzone=21,11 / fast_pskip=0 / chroma_qp_offset=-6 / threads=8 / lookahead_threads=1 / sliced_threads=0 / nr=0 / decimate=0 / interlaced=0 / bluray_compat=0 / constrained_intra=0 / bframes=8 / b_pyramid=2 / b_adapt=2 / b_bias=0 / direct=3 / weightb=1 / open_gop=0 / weightp=2 / keyint=250 / keyint_min=25 / scenecut=40 / intra_refresh=0 / rc_lookahead=60 / rc=2pass / mbtree=0 / bitrate=2668 / ratetol=1.0 / qcomp=0.60 / qpmin=0 / qpmax=69 / qpstep=4 / cplxblur=20.0 / qblur=0.5 / vbv_maxrate=50000 / vbv_bufsize=62500 / nal_hrd=none / filler=0 / ip_ratio=1.40 / pb_ratio=1.30 / aq=1:1.00
Default : Нет
Forced : Нет
Коэффициенты матрицы : BT.601
colour_range : Limited
DURATION : 02:21:27.000000000
NUMBER_OF_FRAMES : 212175
NUMBER_OF_BYTES : 2830493805
_STATISTICS_WRITING_APP : mkvmerge v7.4.0 ('Circles') 64bit built on Dec 12 2014 12:19:56
_STATISTICS_WRITING_DATE_UTC : 2014-12-15 15:35:51
_STATISTICS_TAGS : BPS DURATION NUMBER_OF_FRAMES NUMBER_OF_BYTES
Аудио #1
Идентификатор : 2
Формат : AC-3
Формат/Информация : Audio Coding 3
Расширение режима : CM (complete main)
Параметр Endianness формата : Big
Идентификатор кодека : A_AC3
Продолжительность : 2 ч. 21 м.
Вид битрейта : Постоянный
Битрейт : 128 Кбит/сек
Каналы : 1 канал
Расположение каналов : Front: C
Частота : 48,0 КГц
Битовая глубина : 16 бит
Метод сжатия : С потерями
Размер потока : 130 Мбайт (4%)
Язык : Russian
Default : Да
Forced : Нет
Аудио #2
Идентификатор : 3
Формат : AC-3
Формат/Информация : Audio Coding 3
Расширение режима : CM (complete main)
Параметр Endianness формата : Big
Идентификатор кодека : A_AC3
Продолжительность : 2 ч. 21 м.
Вид битрейта : Постоянный
Битрейт : 192 Кбит/сек
Каналы : 2 канала
Расположение каналов : Front: L R
Частота : 48,0 КГц
Битовая глубина : 16 бит
Метод сжатия : С потерями
Размер потока : 194 Мбайт (6%)
Язык : English
Default : Нет
Forced : Нет
Меню
00:00:00.000 : en:Chapter 01
00:09:04.120 : en:Chapter 02
00:31:16.080 : en:Chapter 03
00:41:47.080 : en:Chapter 04
00:56:19.440 : en:Chapter 05
01:10:53.120 : en:Chapter 06
01:20:47.480 : en:Chapter 07
01:41:00.200 : en:Chapter 08
01:53:10.240 : en:Chapter 09
02:08:25.680 : en:Chapter 10

Исходник R2 + русский звук
Спасибо 2 AVV_UA

Релиз от: Temperest



   Похожие торренты   Торрент   Размер 
В этой теме нет новых непрочитанных сообщений. Спорт, спорт, спорт (1970) DVDRip-AVC от Temperest

68 | 9

1.55 ГБ

В этой теме нет новых непрочитанных сообщений. Спорт, спорт, спорт (1970) DVDRip от Киномагия

5 | 3

1.37 ГБ

В этой теме нет новых непрочитанных сообщений. XXII зимние Олимпийские игры. Конькобежный спорт. Женщины 1500 м [Спорт] [16.02] IPTV

44 | 62

1.63 ГБ

В этой теме нет новых непрочитанных сообщений. XXII Зимниe Олимпийскиe игры. Конькобежный спорт. Женщины. 500 метров [Спорт] [11.02] (2014) DVB

16 | 6

6.73 ГБ

В этой теме нет новых непрочитанных сообщений. XXII зимние Олимпийские игры. Конькобежный спорт. Мужчины 10 000 м [Спорт] [18.02] (2014) IPTV

35 | 25

2.16 ГБ

В этой теме нет новых непрочитанных сообщений. XXII Зимние Олимпийские игры. Конькобежный спорт. 3000 м. Женщины [Спорт 1 HD] [09.02] (2014) HDTVRip

44 | 8

1.31 ГБ

В этой теме нет новых непрочитанных сообщений. XXII Зимние Олимпийские игры. Санный спорт. Эстафета [HD Спорт] [13.02] (2014) HDTV 1080i

11 | 9

6.42 ГБ




Вы не можете начинать темы
Вы не можете отвечать на сообщения
Вы не можете редактировать свои сообщения
Вы не можете удалять свои сообщения
Вы не можете добавлять вложения

Перейти:  
Для Мосгорсуда, Роскомнадзора и рекламодателей: mosgorsud-torrent[собачка]yandex.ru
 Вход
ppkBB3cker v.2 © 2008-2014 @ PPK
[ Time : 0.033s | 15 Queries | GZIP : Off ]

Торрент трекер RUTOR.IN, Не можете зайти на rutor.org? Какой новый адрес рутор? Какое зеркало рутор? Не работает rutor.org и зеркала? Тогда наш торрент специально для вас. Rutor.in неофициальное зеркало rutor. В случае если у Вас заблокирован rutor или вдруг Вы не можете на него зайти, то Вы без труда сможете скачать бесплатно и без рекламы последние новинки кино, игр, сериалов и прочего у нас, на Rutor.in. Не нужно использовать прокси, чтобы зайти на рутор, достаточно воспользоваться нашим ресурсом. Все новые фильмы, игры, сериалы, книги и музыка за 2013 и 2014 годы через торрент бесплатно. Скачивайте фильмы в хорошем качестве, игры для пк, xbox, playstation без регистрации. У нас вы найдете новые Зарубежные сериалы и Русские сериалы 2013, 2014, 2015 годов. Оставайтесь с нами, качайте любимые фильмы, игры, сериалы, книги и музыку.