img image001 image001 image001 image001 image001 image001 image001 image001 image001 image001 image001 image001 image001 image001 image001

Planets Sun Sun Sun
Статистика раздачи
Автор: Nickolas3434 | Размер: 745.9 МБ | Добавлен: 19 дек 2014
Раздают: 10    Качают: 7
Скачать торрент
Скачать торрент
Описание торрента

СообщениеДобавлено: 19 дек 2014 

Страна: СССР
Производство: Киевская киностудия
Жанр: драма
Год выпуска: 1940
Продолжительность: 01:13:48
Перевод: Не требуется
Cубтитры: нет
Оригинальная аудиодорожка: русский
Режиссер: Исидор Анненский
В ролях:
Евгения Горкуша, Андрей Абрикосов, Петр Алейников, Антон Дунайский, Василий Зайчиков, Анастасия Зуева, Алексей Максимов, Иван Новосельцев, Александра Попова, О. Шахет, Дмитрий Капка...
Описание:
В конце тридцатых годов мечтой советского человека было небо, воздушный океан. Десятки аэроклубов открывались по всей стране, через считанные месяцы их выпускники будут бомбить фрица на фанерных птицах. Охотник из тайги заканчивает летную школу и совершает первые боевые вылеты…






Источник: DVD5 R5
Качество видео: DVDRip
Формат видео: AVI
Виде: 688x512 (4:3), 25 fps, XviD ~ 1275 kbps avg, 0.145 bit/pixel
Аудио: 48 kHz, MP3 2.0, 128 kbps
Раздача от:
Общее
Полное имя : Pyatyy.okean.1940.DVDRip-745_[New-team]_by_AVP_Studio.avi
Формат : AVI
Формат/Информация : Audio Video Interleave
Размер файла : 746 Мбайт
Продолжительность : 1 ч. 13 м.
Общий поток : 1413 Кбит/сек
Программа кодирования : VirtualDubModRus 1.5.10.2 (build 2542/release)
Библиотека кодирования : VirtualDubMod build 2542/release
Видео
Идентификатор : 0
Формат : MPEG-4 Visual
Профиль формата : Advanced Simple@L5
Параметр BVOP формата : 1
Параметр QPel формата : Нет
Параметр GMC формата : Без точки перехода
Параметр матрицы формата : Выборочная
Идентификатор кодека : XVID
Идентификатор кодека/Подсказка : XviD
Продолжительность : 1 ч. 13 м.
Битрейт : 1275 Кбит/сек
Ширина : 688 пикселей
Высота : 512 пикселей
Соотношение сторон : 4:3
Частота кадров : 25,000 кадров/сек
Цветовое пространство : YUV
Субдискретизация насыщенности : 4:2:0
Битовая глубина : 8 бит
Тип развёртки : Прогрессивная
Метод сжатия : С потерями
Бит/(Пиксели*Кадры) : 0.145
Размер потока : 673 Мбайт (90%)
Библиотека кодирования : XviD 73
Аудио
Идентификатор : 1
Формат : MPEG Audio
Версия формата : Version 1
Профиль формата : Layer 3
Идентификатор кодека : 55
Идентификатор кодека/Подсказка : MP3
Продолжительность : 1 ч. 13 м.
Вид битрейта : Постоянный
Битрейт : 128 Кбит/сек
Каналы : 2 канала
Частота : 48,0 КГц
Метод сжатия : С потерями
Размер потока : 67,6 Мбайт (9%)
Выравнивание : Соединение по промежуткам
Продолжительность промежутка : 40 мс. (1,00 видеокадр)
Время предзагрузки промежутка : 504 мс.
Библиотека кодирования : LAME3.99r
Настройки программы : -m s -V 4 -q 2 -lowpass 17 -b 128





   Похожие торренты   Торрент   Размер 
В этой теме нет новых непрочитанных сообщений. Пятый океан (1940) DVDRip от New-Team

23 | 4

1.09 ГБ

В этой теме нет новых непрочитанных сообщений. Пятый океан (1940) DVDRip-AVC от New-Team

37 | 3

1.09 ГБ

В этой теме нет новых непрочитанных сообщений. 60 дней (1940) DVDRip от New-Team

57 | 14

1.09 ГБ

В этой теме нет новых непрочитанных сообщений. Суворов (1940) DVDRip от New-Team

38 | 7

1.45 ГБ

В этой теме нет новых непрочитанных сообщений. Суворов (1940) DVDRip от New-Team

40 | 13

1.05 ГБ

В этой теме нет новых непрочитанных сообщений. Суворов (1940) DVDRip-AVC от New-Team

205 | 8

1.46 ГБ

В этой теме нет новых непрочитанных сообщений. Сибиряки (1940) DVDRip от New-Team

44 | 2

1.45 ГБ




Вы не можете начинать темы
Вы не можете отвечать на сообщения
Вы не можете редактировать свои сообщения
Вы не можете удалять свои сообщения
Вы не можете добавлять вложения

Перейти:  
Для Мосгорсуда, Роскомнадзора и рекламодателей: mosgorsud-torrent[собачка]yandex.ru
 Вход
ppkBB3cker v.2 © 2008-2014 @ PPK
[ Time : 0.110s | 15 Queries | GZIP : Off ]

Торрент трекер RUTOR.IN, Не можете зайти на rutor.org? Какой новый адрес рутор? Какое зеркало рутор? Не работает rutor.org и зеркала? Тогда наш торрент специально для вас. Rutor.in неофициальное зеркало rutor. В случае если у Вас заблокирован rutor или вдруг Вы не можете на него зайти, то Вы без труда сможете скачать бесплатно и без рекламы последние новинки кино, игр, сериалов и прочего у нас, на Rutor.in. Не нужно использовать прокси, чтобы зайти на рутор, достаточно воспользоваться нашим ресурсом. Все новые фильмы, игры, сериалы, книги и музыка за 2013 и 2014 годы через торрент бесплатно. Скачивайте фильмы в хорошем качестве, игры для пк, xbox, playstation без регистрации. У нас вы найдете новые Зарубежные сериалы и Русские сериалы 2013, 2014, 2015 годов. Оставайтесь с нами, качайте любимые фильмы, игры, сериалы, книги и музыку.