img image001 image001 image001 image001 image001 image001 image001 image001 image001 image001 image001 image001 image001 image001 image001

Planets Sun Sun Sun
Статистика раздачи
Автор: Nickolas3434 | Размер: 4 ГБ | Добавлен: 19 дек 2014
Раздают: 197    Качают: 11
Скачать торрент
Скачать торрент
Описание торрента

СообщениеДобавлено: 19 дек 2014 

Информация о фильме
Название: Тайна тёмной комнаты
Год выхода: 2014
Жанр: приключения, детский
Режиссер: Ольга Беляева
В ролях: Сергей Никоненко, Виктор Сухоруков, Галина Польских, Ирина Скобцева, Константин Крюков, Иван Агапов, Екатерина Воронина, Нина Маслова, Егор Губарев, Андрей Попович
О фильме:
Два школьника решают исследовать таинственное окно, появляющееся на стене их дома в полночь во время полнолуния. Проникнув туда и оказавшись в тёмной комнате, они и не подозревают, какие приключения ждут их впереди…

Страна: Россия
Студия: Вертикаль
Продолжительность: 75 мин. / 01:15
Перевод: не требуется
Файл
Кодек: MPEG2
Качество: DVD5
Видео: PAL 16:9 (720x576@1024x576) VBR 6637 Kbps, 25.000 fps
Звук: Dolby AC3, 6 ch, 48.0 KHz, 448 Kbps
Субтитры: отсутствуют
General
Complete name : D:Taina.Temnoii.Komnatu.2014.DVD5VIDEO_TSVTS_02_1.VOB
Format : MPEG-PS
File size : 1 024 MiB
Duration : 19mn 48s
Overall bit rate mode : Variable
Overall bit rate : 7 229 Kbps
Video
ID : 224 (0xE0)
Format : MPEG Video
Format version : Version 2
Format profile : Main@Main
Format settings, BVOP : Yes
Format settings, Matrix : Custom
Format settings, GOP : M=3, N=12
Format settings, picture struc : Frame
Duration : 19mn 48s
Bit rate mode : Variable
Bit rate : 6 637 Kbps
Maximum bit rate : 9 000 Kbps
Width : 720 pixels
Height : 576 pixels
Display aspect ratio : 16:9
Frame rate : 25.000 fps
Standard : PAL
Color space : YUV
Chroma subsampling : 4:2:0
Bit depth : 8 bits
Scan type : Interlaced
Scan order : Top Field First
Compression mode : Lossy
Bits/(Pixel*Frame) : 0.640
Time code of first frame : 00:00:00:00
Time code source : Group of pictures header
Stream size : 940 MiB (92%)
Color primaries : BT.601 PAL
Transfer characteristics : BT.470 System B, BT.470 System G
Matrix coefficients : BT.601
Audio
ID : 189 (0xBD)-128 (0x80)
Format : AC-3
Format/Info : Audio Coding 3
Mode extension : CM (complete main)
Format settings, Endianness : Big
Muxing mode : DVD-Video
Duration : 19mn 47s
Bit rate mode : Constant
Bit rate : 448 Kbps
Channel(s) : 6 channels
Channel positions : Front: L C R, Side: L R, LFE
Sampling rate : 48.0 KHz
Bit depth : 16 bits
Compression mode : Lossy
Stream size : 63.4 MiB (6%)
Menu




   Похожие торренты   Торрент   Размер 
В этой теме нет новых непрочитанных сообщений. Тайна тёмной комнаты (2014) WEB-DLRip

88 | 7

1.37 ГБ

В этой теме нет новых непрочитанных сообщений. Тайна тёмной комнаты (2014) WEBRip

1216 | 78

1.37 ГБ

В этой теме нет новых непрочитанных сообщений. Тайна тёмной комнаты (2014) DVDRip-AVC от MediaClub

566 | 34

956.43 МБ

В этой теме нет новых непрочитанных сообщений. Тайна тёмной комнаты (2014) WEB-DLRip 720p

187 | 8

1.55 ГБ

В этой теме нет новых непрочитанных сообщений. Отверженные: Тайна темной расы (2001) PC | Лицензия

21 | 3

1 ГБ

В этой теме нет новых непрочитанных сообщений. Отверженные: Тайна темной расы (2001) PC | RePack от Pilotus

37 | 3

532.87 МБ

В этой теме нет новых непрочитанных сообщений. Тайна четырех принцесс (2014) DVD5 | Лицензия

215 | 37

4.35 ГБ




Вы не можете начинать темы
Вы не можете отвечать на сообщения
Вы не можете редактировать свои сообщения
Вы не можете удалять свои сообщения
Вы не можете добавлять вложения

Перейти:  
Для Мосгорсуда, Роскомнадзора и рекламодателей: mosgorsud-torrent[собачка]yandex.ru
 Вход
ppkBB3cker v.2 © 2008-2014 @ PPK
[ Time : 0.029s | 15 Queries | GZIP : Off ]

Торрент трекер RUTOR.IN, Не можете зайти на rutor.org? Какой новый адрес рутор? Какое зеркало рутор? Не работает rutor.org и зеркала? Тогда наш торрент специально для вас. Rutor.in неофициальное зеркало rutor. В случае если у Вас заблокирован rutor или вдруг Вы не можете на него зайти, то Вы без труда сможете скачать бесплатно и без рекламы последние новинки кино, игр, сериалов и прочего у нас, на Rutor.in. Не нужно использовать прокси, чтобы зайти на рутор, достаточно воспользоваться нашим ресурсом. Все новые фильмы, игры, сериалы, книги и музыка за 2013 и 2014 годы через торрент бесплатно. Скачивайте фильмы в хорошем качестве, игры для пк, xbox, playstation без регистрации. У нас вы найдете новые Зарубежные сериалы и Русские сериалы 2013, 2014, 2015 годов. Оставайтесь с нами, качайте любимые фильмы, игры, сериалы, книги и музыку.