img image001 image001 image001 image001 image001 image001 image001 image001 image001 image001 image001 image001 image001 image001 image001

Planets Sun Sun Sun
Статистика раздачи
Автор: Nickolas3434 | Размер: 10.67 ГБ | Добавлен: 19 дек 2014
Раздают: 19    Качают: 2
Скачать торрент
Скачать торрент
Описание торрента

СообщениеДобавлено: 19 дек 2014 

Год выпуска: 2007
Страна: Россия
Жанр: драма
Продолжительность: 01:48:44
Язык: русский
Субтитры: русские, английские
Режиссёр: Карен Шахназаров
В ролях: Александр Ляпин, Лидия Милюзина, Егор Барановский, Иван Купреенко, Армен Джигарханян, Ольга Тумайкина, Владимир Ильин, Татьяна Яковенко, Янина Калганова, Василий Шахназаров, Станислав Эвентов, Екатерина Каспарова, Арина Аринушкина, Сергей Бадичкин, Сергей Барковский, Ричард Бондарев, Максим Борисов, Светлана Бухтоярова, Михаил Герасименко, Константин Градский, Ромео Гурмазия, Бронислава Захарова, Ольга Ковалева, Яна Крайнова, Алхас Манаргия, Татьяна Корсак, Юрий Ракович, Велимир Русаков, Иван Шахназаров, Маргарита Кепова
Описание: Действие фильма разворачивается в 70-е годы прошлого века в Москве. В центре сюжета классический любовный треугольник - два парня и девушка. Они учатся в одном институте, живут в одной большой стране, не подозревая о том, что уже совсем скоро она исчезнет со всех географических карт планеты. Картина о любви, о молодости, о стране под названием Советский Союз.

Качество: BDRip 1080p
Формат: MKV
Видео кодек: H.264
Аудио кодек: DTS
Видео: 1806x1080, 12.3 Mbps, 23.976 кадра/с, 0.262 bpp
Аудио: русский, DTS, 1509 kbps, 6 ch, 48 kHz
Имеются неименованные главы/чаптеры.
Золотой орел, 2009 год
Победитель (2):
Лучший режиссер (Карен Шахназаров)
Лучшая мужская роль второго плана (Армен Джигарханян)
Номинации (3):
Лучший фильм
Лучшая работа оператора
Лучшие костюмы
Ника, 2009 год
Номинации (2):
Лучший фильм
Лучшая мужская роль второго плана (Армен Джигарханян)

Общее
Уникальный идентификатор : 226543529742292851158853591523675910589 (0xAA6EB25F1C8AD82B9AAD93949194B1BD)
Полное имя : D:VideoIscheznuvshaja imperija.2007.BDRip.1080p.mkv
Формат : Matroska
Версия формата : Version 4 / Version 2
Размер файла : 10,7 Гбайт
Продолжительность : 1 ч. 48 м.
Общий поток : 14,0 Мбит/сек
Дата кодирования : UTC 2014-12-18 06:25:52
Программа кодирования : mkvmerge v7.4.0 ('Circles') 64bit built on Dec 12 2014 12:19:56
Библиотека кодирования : libebml v1.3.0 + libmatroska v1.4.1
_STATISTICS_WRITING_APP : mkvmerge v7.4.0 ('Circles') 64bit built on Dec 12 2014 12:19:56
_STATISTICS_WRITING_DATE_UTC : 2014-12-18 06:25:52
_STATISTICS_TAGS : BPS DURATION NUMBER_OF_FRAMES NUMBER_OF_BYTES
DURATION : 01:48:44.694000000
NUMBER_OF_FRAMES : 611690
NUMBER_OF_BYTES : 1230720348
Видео
Идентификатор : 1
Формат : AVC
Формат/Информация : Advanced Video Codec
Профиль формата : High@L4.1
Параметр CABAC формата : Да
Параметр ReFrames формата : 4 кадра
Идентификатор кодека : V_MPEG4/ISO/AVC
Продолжительность : 1 ч. 48 м.
Битрейт : 12,3 Мбит/сек
Ширина : 1806 пикселей
Высота : 1080 пикселей
Соотношение сторон : 1,672
Режим частоты кадров : Постоянный
Частота кадров : 23,976 кадра/сек
Цветовое пространство : YUV
Субдискретизация насыщенности : 4:2:0
Битовая глубина : 8 бит
Тип развёртки : Прогрессивная
Бит/(Пиксели*Кадры) : 0.262
Размер потока : 9,31 Гбайт (87%)
Заголовок : BDRip -- STarankov
Библиотека кодирования : x264 core 142 r2431 ac76440
Настройки программы : cabac=1 / ref=4 / deblock=1:-1:-1 / analyse=0x3:0x113 / me=umh / subme=10 / psy=1 / psy_rd=1.00:0.15 / mixed_ref=1 / me_range=32 / chroma_me=1 / trellis=2 / 8x8dct=1 / cqm=0 / deadzone=21,11 / fast_pskip=1 / chroma_qp_offset=-3 / threads=6 / lookahead_threads=1 / sliced_threads=0 / nr=0 / decimate=1 / interlaced=0 / bluray_compat=0 / constrained_intra=0 / bframes=8 / b_pyramid=2 / b_adapt=2 / b_bias=0 / direct=3 / weightb=1 / open_gop=0 / weightp=2 / keyint=230 / keyint_min=23 / scenecut=40 / intra_refresh=0 / rc_lookahead=40 / rc=crf / mbtree=0 / crf=18.3 / qcomp=0.60 / qpmin=0 / qpmax=69 / qpstep=4 / vbv_maxrate=40000 / vbv_bufsize=50000 / crf_max=0.0 / nal_hrd=none / filler=0 / ip_ratio=1.40 / pb_ratio=1.30 / aq=1:1.00
Язык : Russian
Default : Да
Forced : Нет
DURATION : 01:48:44.727000000
NUMBER_OF_FRAMES : 156437
NUMBER_OF_BYTES : 10222899096
_STATISTICS_WRITING_APP : mkvmerge v7.4.0 ('Circles') 64bit built on Dec 12 2014 12:19:56
_STATISTICS_WRITING_DATE_UTC : 2014-12-18 06:25:52
_STATISTICS_TAGS : BPS DURATION NUMBER_OF_FRAMES NUMBER_OF_BYTES
Аудио
Идентификатор : 2
Формат : DTS
Формат/Информация : Digital Theater Systems
Режим : 16
Параметр Endianness формата : Big
Идентификатор кодека : A_DTS
Продолжительность : 1 ч. 48 м.
Вид битрейта : Постоянный
Битрейт : 1509 Кбит/сек
Каналы : 6 каналов
Расположение каналов : Front: L C R, Side: L R, LFE
Частота : 48,0 КГц
Битовая глубина : 24 бит
Метод сжатия : С потерями
Размер потока : 1,15 Гбайт (11%)
Заголовок : Оригинал
Язык : Russian
Default : Да
Forced : Нет
Текст #1
Идентификатор : 3
Формат : UTF-8
Идентификатор кодека : S_TEXT/UTF8
Идентификатор кодека/Информация : UTF-8 Plain Text
Заголовок : русский
Язык : Russian
Default : Нет
Forced : Нет
Текст #2
Идентификатор : 4
Формат : UTF-8
Идентификатор кодека : S_TEXT/UTF8
Идентификатор кодека/Информация : UTF-8 Plain Text
Заголовок : английский
Default : Нет
Forced : Нет
Меню
00:00:00.000 : :Chapter 01
00:04:33.273 : :Chapter 02
00:09:04.544 : :Chapter 03
00:15:24.924 : :Chapter 04
00:22:04.323 : :Chapter 05
00:32:06.925 : :Chapter 06
00:41:33.491 : :Chapter 07
00:51:35.092 : :Chapter 08
01:00:10.607 : :Chapter 09
01:06:24.981 : :Chapter 10
01:13:50.426 : :Chapter 11
01:21:39.895 : :Chapter 12
01:34:19.654 : :Chapter 13
01:40:55.049 : :Chapter 14





   Похожие торренты   Торрент   Размер 
В этой теме нет новых непрочитанных сообщений. Исчезнувшая империя (2007) BDRip 720p by msltel

43 | 6

4.66 ГБ

В этой теме нет новых непрочитанных сообщений. Исчезнувшая империя (2007) Blu-Ray 1080p от HDClub

8 | 13

21.43 ГБ

В этой теме нет новых непрочитанных сообщений. Исчезнувшая империя (2007) BDRip от HQCLUB

68 | 4

2 ГБ

В этой теме нет новых непрочитанных сообщений. Исчезнувшая империя (2007) BDRip-AVC от ExKinoRay

26 | 7

2.62 ГБ

В этой теме нет новых непрочитанных сообщений. Исчезнувшая империя (2007) BDRip AVC от Киномагия

11 | 4

1.45 ГБ

В этой теме нет новых непрочитанных сообщений. Исчезнувшая империя (2007) BDRip 720p от leonardo 59

554 | 38

2.91 ГБ

В этой теме нет новых непрочитанных сообщений. Исчезнувшая империя (2007) HDRip

57 | 8

1.46 ГБ




Вы не можете начинать темы
Вы не можете отвечать на сообщения
Вы не можете редактировать свои сообщения
Вы не можете удалять свои сообщения
Вы не можете добавлять вложения

Перейти:  
Для Мосгорсуда, Роскомнадзора и рекламодателей: mosgorsud-torrent[собачка]yandex.ru
 Вход
ppkBB3cker v.2 © 2008-2014 @ PPK
[ Time : 1.855s | 15 Queries | GZIP : On ]

Торрент трекер RUTOR.IN, Не можете зайти на rutor.org? Какой новый адрес рутор? Какое зеркало рутор? Не работает rutor.org и зеркала? Тогда наш торрент специально для вас. Rutor.in неофициальное зеркало rutor. В случае если у Вас заблокирован rutor или вдруг Вы не можете на него зайти, то Вы без труда сможете скачать бесплатно и без рекламы последние новинки кино, игр, сериалов и прочего у нас, на Rutor.in. Не нужно использовать прокси, чтобы зайти на рутор, достаточно воспользоваться нашим ресурсом. Все новые фильмы, игры, сериалы, книги и музыка за 2013 и 2014 годы через торрент бесплатно. Скачивайте фильмы в хорошем качестве, игры для пк, xbox, playstation без регистрации. У нас вы найдете новые Зарубежные сериалы и Русские сериалы 2013, 2014, 2015 годов. Оставайтесь с нами, качайте любимые фильмы, игры, сериалы, книги и музыку.