img image001 image001 image001 image001 image001 image001 image001 image001 image001 image001 image001 image001 image001 image001 image001

Planets Sun Sun Sun
Статистика раздачи
Автор: Nickolas3434 | Размер: 5.4 ГБ | Добавлен: 21 дек 2014
Раздают: 71    Качают: 7
Скачать торрент
Скачать торрент
Описание торрента

СообщениеДобавлено: 21 дек 2014 

Информация о фильме
Название: Броненосец Потёмкин
Оригинальное название: Battleship Potemkin
Год выхода: 1925
Жанр: Драма, исторический
Режиссер: Сергей Эйзенштейн
Композитор: Эрик Элламен, Яти Дюран, Владимир Хейфиц
В ролях: Владимир Уральский, Александр Антонов, Владимир Барский, Григорий Александров, Михаил Гоморов, Марусов, Иван Бобров, Репникова, Александр Левшин, Андрей Файт
О фильме:
Созданный в 1925 году и признанный лучшим фильмом всех времен и народов, "Броненосец Потемкин" продолжает оставаться одним из самых значительных произведений отечественного и мирового киноискусства. Его сюжет, основанный на подлинном историческом событии, образно выразил основные социальные тенденции ХХ века: массовое стремление к свободе, борьбу с тиранией, защиту человеческого достоинства, призыв к единению людей во имя равноправия. Новаторская форма фильма и сегодня оказывает глубокое влияние на развитие выразительных средств кино.

Страна: СССР
Студия: 1-ая Фабрика Госкино
Продолжительность: 01:11:37
Перевод: Не требуется
Файл
Кодек: h.264
Качество: BDRip 1080p
Видео: MPEG-4, 1408x1080, 10.3 Мбит/с, 23.976 кадр/с
Звук: (AC3, 6ch, 448 Кбит/с, 48.0 KHz) Музыкальное сопровождение (Babelsberg Orchestra)
Субтитры: Английскиe
Unique ID : 251432592631716922066978054678426944537 (0xBD2827EA022379EE8B03B68366940419)
Complete name :The.Battleship.Potemkin.1925.BDRip.1080p.mkv
Format : Matroska
Format version : Version 4 / Version 2
File size : 5.40 GiB
Duration : 1h 11mn
Overall bit rate : 10.8 Mbps
Encoded date : UTC 2014-12-17 21:31:18
Writing application : mkvmerge v6.9.1 ('Blue Panther') 64bit built on Apr 18 2014 18:23:38
Writing library : libebml v1.3.0 + libmatroska v1.4.1
Video
ID : 1
Format : AVC
Format/Info : Advanced Video Codec
Format profile : High@L4.1
Format settings, CABAC : Yes
Format settings, ReFrames : 5 frames
Codec ID : V_MPEG4/ISO/AVC
Duration : 1h 11mn
Bit rate : 10.3 Mbps
Width : 1 408 pixels
Height : 1 080 pixels
Display aspect ratio : 4:3
Frame rate mode : Constant
Frame rate : 23.976 fps
Color space : YUV
Chroma subsampling : 4:2:0
Bit depth : 8 bits
Scan type : Progressive
Bits/(Pixel*Frame) : 0.284
Stream size : 5.07 GiB (94%)
Title : Video
Writing library : x264 core 125 r2200 999b753
Encoding settings : cabac=1 / ref=5 / deblock=1:-1:-1 / analyse=0x3:0x113 / me=umh / subme=8 / psy=1 / psy_rd=1.00:0.15 / mixed_ref=1 / me_range=16 / chroma_me=1 / trellis=1 / 8x8dct=1 / cqm=0 / deadzone=21,11 / fast_pskip=1 / chroma_qp_offset=-3 / threads=6 / lookahead_threads=1 / sliced_threads=0 / nr=0 / decimate=1 / interlaced=0 / bluray_compat=0 / constrained_intra=0 / bframes=4 / b_pyramid=2 / b_adapt=2 / b_bias=0 / direct=3 / weightb=1 / open_gop=0 / weightp=2 / keyint=250 / keyint_min=23 / scenecut=40 / intra_refresh=0 / rc_lookahead=50 / rc=2pass / mbtree=1 / bitrate=10348 / ratetol=1.0 / qcomp=0.60 / qpmin=0 / qpmax=69 / qpstep=4 / cplxblur=20.0 / qblur=0.5 / ip_ratio=1.40 / aq=1:1.00
Default : Yes
Forced : No
Audio
ID : 2
Format : AC-3
Format/Info : Audio Coding 3
Mode extension : CM (complete main)
Format settings, Endianness : Big
Codec ID : A_AC3
Duration : 1h 11mn
Bit rate mode : Constant
Bit rate : 448 Kbps
Channel(s) : 6 channels
Channel positions : Front: L C R, Side: L R, LFE
Sampling rate : 48.0 KHz
Bit depth : 16 bits
Compression mode : Lossy
Stream size : 230 MiB (4%)
Title : Audio
Default : Yes
Forced : No
Text
ID : 3
Format : PGS
Muxing mode : zlib
Codec ID : S_HDMV/PGS
Codec ID/Info : The same subtitle format used on BDs/HD-DVDs
Language : English
Default : Yes
Forced : No




   Похожие торренты   Торрент   Размер 
В этой теме нет новых непрочитанных сообщений. Броненосец «Потемкин» / Battleship Potemkin / Bronenosets Potyomkin (1925) BDRip от HQCLUB

14 | 3

1.09 ГБ

В этой теме нет новых непрочитанных сообщений. Броненосец «Потемкин» (1925) BDRip (1080p) от NOLIMITS-TEAM

3 | 3

3.62 ГБ

В этой теме нет новых непрочитанных сообщений. Броненосец «Потемкин» (1925) BDRip-AVC | iPad

10 | 13

2 ГБ

В этой теме нет новых непрочитанных сообщений. Броненосец Потемкин (1925) BDRip-AVC от ExKinoRay

94 | 14

1.47 ГБ

В этой теме нет новых непрочитанных сообщений. Броненосец Потемкин (1925) Blu-Ray

3 | 8

40.39 ГБ

В этой теме нет новых непрочитанных сообщений. Броненосец «Потемкин» (1925) HDTV 1080i от FreeHD

7 | 3

3.69 ГБ

В этой теме нет новых непрочитанных сообщений. Золотая лихорадка / The Gold Rush (1925) BDRip 1080p от FreeHD

27 | 28

5.95 ГБ




Вы не можете начинать темы
Вы не можете отвечать на сообщения
Вы не можете редактировать свои сообщения
Вы не можете удалять свои сообщения
Вы не можете добавлять вложения

Перейти:  
Для Мосгорсуда, Роскомнадзора и рекламодателей: mosgorsud-torrent[собачка]yandex.ru
 Вход
ppkBB3cker v.2 © 2008-2014 @ PPK
[ Time : 0.041s | 15 Queries | GZIP : Off ]

Торрент трекер RUTOR.IN, Не можете зайти на rutor.org? Какой новый адрес рутор? Какое зеркало рутор? Не работает rutor.org и зеркала? Тогда наш торрент специально для вас. Rutor.in неофициальное зеркало rutor. В случае если у Вас заблокирован rutor или вдруг Вы не можете на него зайти, то Вы без труда сможете скачать бесплатно и без рекламы последние новинки кино, игр, сериалов и прочего у нас, на Rutor.in. Не нужно использовать прокси, чтобы зайти на рутор, достаточно воспользоваться нашим ресурсом. Все новые фильмы, игры, сериалы, книги и музыка за 2013 и 2014 годы через торрент бесплатно. Скачивайте фильмы в хорошем качестве, игры для пк, xbox, playstation без регистрации. У нас вы найдете новые Зарубежные сериалы и Русские сериалы 2013, 2014, 2015 годов. Оставайтесь с нами, качайте любимые фильмы, игры, сериалы, книги и музыку.