img image001 image001 image001 image001 image001 image001 image001 image001 image001 image001 image001 image001 image001 image001 image001

Planets Sun Sun Sun
Статистика раздачи
Автор: Nickolas3434 | Размер: 745.67 МБ | Добавлен: 24 дек 2014
Раздают: 954    Качают: 60
Скачать торрент
Скачать торрент
Описание торрента

СообщениеДобавлено: 24 дек 2014 

Информация о фильме
Название: В плену обмана
Год выхода: 2014
Жанр: Мелодрама, драма
Режиссёр: Сергей Краснов
В ролях: Анастасия Дубровина, Михаил Пшеничный, Алексей Анищенко, Александра Булычёва, Мария Ситко, Александр Смирнов, Елена Цыплакова, Анна Литкенс, Евгений Морозов, Дмитрий Бедерин
О фильме:
Счастливые влюбленные Ольга и Игорь заканчивают школу и мечтают о скорой свадьбе. Но судьба распоряжается иначе: поступить в институт удаётся лишь Ольге, а Игорь уходит служить в армию. В разлуке любовь героев лишь крепнет, и, кажется, эта временная трудность не помешает их счастью… Но долгожданная встреча происходит совсем не так, как грезилось влюбленным. В армии с Игорем происходит трагедия: после тяжелой драки, по вине врачей парню ампутируют ноги. Решив не ломать Ольге жизнь, Игорь, скрывая увечия, говорит, что любит другую и она ждёт от него ребенка. Ольга в шоке уезжает, а Игорь понимает, что его жизнь кончена… Немало злоключений героям предстоит пройти, прежде чем плен обмана будет разрушен… Выдержит ли все испытания настоящая любовь?

Страна: Россия
Студия: Кинокомпания "Русское"
Продолжительность: 01:29:40
Перевод: Не требуется
Файл
Кодек: XviD
Качество: HDTVRip [Исходник: HDTV (1080i)]
Видео: XviD, 1025 Кбит/с, 656x368 (16:9), 25 кадр/с
Звук: Русский, MP3, 48000 Гц, 128 Кбит/с, 2 канала (Стерео)
Субтитры: Нет

General
Complete name : V.plenu.obmana.2014.HDTVRip.745MB.avi
Format : AVI
Format/Info : Audio Video Interleave
File size : 746 MiB
Duration : 1h 29mn
Overall bit rate : 1 163 Kbps
Writing application : VirtualDubMod 1.5.10.3 (build 2550/release)
Writing library : VirtualDubMod build 2550/release
Copyright : rip by ivandubskoj
Video
ID : 0
Format : MPEG-4 Visual
Format profile : Advanced Simple@L5
Format settings, BVOP : 2
Format settings, QPel : No
Format settings, GMC : No warppoints
Format settings, Matrix : Custom
Codec ID : XVID
Codec ID/Hint : XviD
Duration : 1h 29mn
Bit rate : 1 025 Kbps
Width : 656 pixels
Height : 368 pixels
Display aspect ratio : 16:9
Frame rate : 25.000 fps
Color space : YUV
Chroma subsampling : 4:2:0
Bit depth : 8 bits
Scan type : Progressive
Compression mode : Lossy
Bits/(Pixel*Frame) : 0.170
Stream size : 657 MiB (88%)
Writing library : XviD 73
Audio
ID : 1
Format : MPEG Audio
Format version : Version 1
Format profile : Layer 3
Codec ID : 55
Codec ID/Hint : MP3
Duration : 1h 29mn
Bit rate mode : Constant
Bit rate : 128 Kbps
Channel(s) : 2 channels
Sampling rate : 48.0 KHz
Compression mode : Lossy
Stream size : 82.1 MiB (11%)
Alignment : Aligned on interleaves
Interleave, duration : 40 ms (1.00 video frame)
Interleave, preload duration : 504 ms
Writing library : LAME3.99r
Encoding settings : -m s -V 4 -q 0 -lowpass 17 -b 128

Автор рипа - ivandubskoj



   Похожие торренты   Торрент   Размер 
В этой теме нет новых непрочитанных сообщений. В плену обмана (2014) HDTVRip от Files-x

2090 | 143

1.37 ГБ

В этой теме нет новых непрочитанных сообщений. В плену обмана (2014) HDTVRip 720p от MediaClub

424 | 38

2.43 ГБ

В этой теме нет новых непрочитанных сообщений. В плену обмана (2014) WEB-DLRip от Interhit

329 | 13

1.37 ГБ

В этой теме нет новых непрочитанных сообщений. В плену обмана (2014) HDTV 1080i от MediaClub

243 | 22

4.94 ГБ

В этой теме нет новых непрочитанных сообщений. Лермонтов (2014) HDTVRip от ivandubskoj

297 | 18

745.16 МБ

В этой теме нет новых непрочитанных сообщений. Берцы (2014) HDTVRip от ivandubskoj

174 | 12

745.44 МБ

В этой теме нет новых непрочитанных сообщений. Лермонтов (2014) HDTVRip от ivandubskoj

1403 | 38

1.46 ГБ




Вы не можете начинать темы
Вы не можете отвечать на сообщения
Вы не можете редактировать свои сообщения
Вы не можете удалять свои сообщения
Вы не можете добавлять вложения

Перейти:  
Для Мосгорсуда, Роскомнадзора и рекламодателей: mosgorsud-torrent[собачка]yandex.ru
 Вход
ppkBB3cker v.2 © 2008-2014 @ PPK
[ Time : 0.023s | 16 Queries | GZIP : Off ]

Торрент трекер RUTOR.IN, Не можете зайти на rutor.org? Какой новый адрес рутор? Какое зеркало рутор? Не работает rutor.org и зеркала? Тогда наш торрент специально для вас. Rutor.in неофициальное зеркало rutor. В случае если у Вас заблокирован rutor или вдруг Вы не можете на него зайти, то Вы без труда сможете скачать бесплатно и без рекламы последние новинки кино, игр, сериалов и прочего у нас, на Rutor.in. Не нужно использовать прокси, чтобы зайти на рутор, достаточно воспользоваться нашим ресурсом. Все новые фильмы, игры, сериалы, книги и музыка за 2013 и 2014 годы через торрент бесплатно. Скачивайте фильмы в хорошем качестве, игры для пк, xbox, playstation без регистрации. У нас вы найдете новые Зарубежные сериалы и Русские сериалы 2013, 2014, 2015 годов. Оставайтесь с нами, качайте любимые фильмы, игры, сериалы, книги и музыку.