img image001 image001 image001 image001 image001 image001 image001 image001 image001 image001 image001 image001 image001 image001 image001

Planets Sun Sun Sun
Статистика раздачи
Автор: Nickolas3434 | Размер: 746.34 МБ | Добавлен: 24 дек 2014
Раздают: 152    Качают: 9
Скачать торрент
Скачать торрент
Описание торрента

СообщениеДобавлено: 24 дек 2014 

Информация о фильме
Название: Пять лет и один день
Год выхода: 2012
Жанр: Драма, мелодрама
Режиссёр: Борис Квашнёв
В ролях: Алина Сергеева, Юрий Батурин, Юлия Галкина, Сергей Радченко, Сергей Романюк, София Максименко
О фильме:
Мирослава приходит в себя после 5 лет комы и узнает, что за эти годы изменился не только мир вокруг, но и ее собственная жизнь. Мирославу похоронили, считая погибшей в пожаре, ее муж живет с лучшей подругой, которую 6-летняя дочь Настя называет мамой. Отдавать Мирославе состояние и ее собственную дочь муж с подругой не собираются и начинают делать вид, будто не узнают женщину. Отец погиб, друзей в городе, в который Мирослава переехала за несколько месяцев до страшной аварии, нет. Ни денег, ни поддержки, единственное, что у женщины - желание вернуть дочь и услышать от нее такое желанное "мама"...

Страна: Россия, Украина
Студия: Международный Медиа Центр-СТБ
Продолжительность: 01:34:13
Перевод: Не требуется
Файл
Кодек: XviD
Качество: HDTVRip [Исходник: HDTV (1080i)]
Видео: XviD, 970 Кбит/с, 656x368 (16:9), 25 кадр/с
Звук: Русский, MP3, 48000 Гц, 128 Кбит/с, 2 канала (Стерео)
Субтитры: Нет

General
Complete name : Pyat.let.i.odin.den'.2012.HDTVRip.745MB.avi
Format : AVI
Format/Info : Audio Video Interleave
File size : 746 MiB
Duration : 1h 34mn
Overall bit rate : 1 107 Kbps
Writing application : VirtualDubMod 1.5.10.3 (build 2550/release)
Writing library : VirtualDubMod build 2550/release
Copyright : rip by ivandubskoj
Video
ID : 0
Format : MPEG-4 Visual
Format profile : Advanced Simple@L5
Format settings, BVOP : 2
Format settings, QPel : No
Format settings, GMC : No warppoints
Format settings, Matrix : Custom
Codec ID : XVID
Codec ID/Hint : XviD
Duration : 1h 34mn
Bit rate : 970 Kbps
Width : 656 pixels
Height : 368 pixels
Display aspect ratio : 16:9
Frame rate : 25.000 fps
Color space : YUV
Chroma subsampling : 4:2:0
Bit depth : 8 bits
Scan type : Progressive
Compression mode : Lossy
Bits/(Pixel*Frame) : 0.161
Stream size : 654 MiB (88%)
Writing library : XviD 73
Audio
ID : 1
Format : MPEG Audio
Format version : Version 1
Format profile : Layer 3
Codec ID : 55
Codec ID/Hint : MP3
Duration : 1h 34mn
Bit rate mode : Constant
Bit rate : 128 Kbps
Channel(s) : 2 channels
Sampling rate : 48.0 KHz
Compression mode : Lossy
Stream size : 86.3 MiB (12%)
Alignment : Aligned on interleaves
Interleave, duration : 40 ms (1.00 video frame)
Interleave, preload duration : 504 ms
Writing library : LAME3.99r
Encoding settings : -m s -V 4 -q 0 -lowpass 17 -b 128

Автор рипа - ivandubskoj



   Похожие торренты   Торрент   Размер 
В этой теме нет новых непрочитанных сообщений. Пять лет и один день (2012) HDTVRip 720p от MediaClub

170 | 12

2.43 ГБ

В этой теме нет новых непрочитанных сообщений. Пять лет и один день (2012) SATRip

24 | 3

1.5 ГБ

В этой теме нет новых непрочитанных сообщений. Пять лет и один день (2012) SATRip от КинозалSAT

61 | 7

700.96 МБ

В этой теме нет новых непрочитанных сообщений. Пять лет и один день (2012) HDTV 1080i от MediaClub

25 | 7

5.5 ГБ

В этой теме нет новых непрочитанных сообщений. Пять лет и один день (2012) HDTV 720p от imperiafilm

21 | 4

2.27 ГБ

В этой теме нет новых непрочитанных сообщений. Один дома 5: Один в темноте / Home Alone: The Holiday Heist (2012) HDTVRip | L1

293 | 11

703.61 МБ

В этой теме нет новых непрочитанных сообщений. Один дома 5: Один в темноте / Home Alone: The Holiday Heist (2012) HDTVRip | P

605 | 17

1.37 ГБ




Вы не можете начинать темы
Вы не можете отвечать на сообщения
Вы не можете редактировать свои сообщения
Вы не можете удалять свои сообщения
Вы не можете добавлять вложения

Перейти:  
Для Мосгорсуда, Роскомнадзора и рекламодателей: mosgorsud-torrent[собачка]yandex.ru
 Вход
ppkBB3cker v.2 © 2008-2014 @ PPK
[ Time : 0.540s | 15 Queries | GZIP : Off ]

Торрент трекер RUTOR.IN, Не можете зайти на rutor.org? Какой новый адрес рутор? Какое зеркало рутор? Не работает rutor.org и зеркала? Тогда наш торрент специально для вас. Rutor.in неофициальное зеркало rutor. В случае если у Вас заблокирован rutor или вдруг Вы не можете на него зайти, то Вы без труда сможете скачать бесплатно и без рекламы последние новинки кино, игр, сериалов и прочего у нас, на Rutor.in. Не нужно использовать прокси, чтобы зайти на рутор, достаточно воспользоваться нашим ресурсом. Все новые фильмы, игры, сериалы, книги и музыка за 2013 и 2014 годы через торрент бесплатно. Скачивайте фильмы в хорошем качестве, игры для пк, xbox, playstation без регистрации. У нас вы найдете новые Зарубежные сериалы и Русские сериалы 2013, 2014, 2015 годов. Оставайтесь с нами, качайте любимые фильмы, игры, сериалы, книги и музыку.