img image001 image001 image001 image001 image001 image001 image001 image001 image001 image001 image001 image001 image001 image001 image001

Planets Sun Sun Sun
Статистика раздачи
Автор: Nickolas3434 | Размер: 1.46 ГБ | Добавлен: 26 дек 2014
Раздают: 121    Качают: 11
Скачать торрент
Скачать торрент
Описание торрента

СообщениеДобавлено: 26 дек 2014 

Информация о фильме
Название: Снежный ангел
Год выхода: 2008
Жанр: Комедия, мелодрама
Режиссёр: Александр Карпиловский
В ролях: Виктория Толстоганова, Дмитрий Певцов, Александр Балуев, Евгения Добровольская, Анастасия Добрынина, Станислав Дужников, Владимир Симонов, Мария Аманова, Ульяна Урванцева, Александра Савельева, Наталья Унгард, Ольга Анохина, Инна Гомес, Александр Мясников, Сергей Мясников, Елена Горяинова, Сати Казанова, Ирина Тонева, Валентина Ананьина
О фильме:
Одинокая московская девушка каждый Новый год уезжает в Санкт-Петербург – только чтобы не встречать праздник с подругами, которые пытаются выдать ее замуж. Но однажды она решает нарушить этот ритуал и сдает билет на поезд, решив таким образом изменить судьбу. Судьба идет ей навстречу, хотя свою любовь она встречает при очень странных обстоятельствах…

Страна: Россия
Студия: Дирекция Кино, Киностудия "RWS", по заказу ЗАО "Первый канал"
Продолжительность: 01:41:05
Перевод: Не требуется
Файл
Кодек: XviD
Качество: DVDRip [Исходник: DVD-9]
Видео: XviD, 1679 Кбит/с, 704x384 (16:9), 25 кадр/с
Звук: Русский, Dolby AC3, 48000 Гц, 384 Кбит/с, 6 каналов (5.1)
Субтитры: Нет

General
Complete name : Snezhnuj.angel.2008.DVDRip.avi
Format : AVI
Format/Info : Audio Video Interleave
File size : 1.46 GiB
Duration : 1h 41mn
Overall bit rate : 2 071 Kbps
Writing application : VirtualDubMod 1.5.10.3 (build 2550/release)
Writing library : VirtualDubMod build 2550/release
Copyright : rip by ivandubskoj
Video
ID : 0
Format : MPEG-4 Visual
Format profile : Advanced Simple@L5
Format settings, BVOP : 1
Format settings, QPel : No
Format settings, GMC : No warppoints
Format settings, Matrix : Custom
Codec ID : XVID
Codec ID/Hint : XviD
Duration : 1h 41mn
Bit rate : 1 679 Kbps
Width : 704 pixels
Height : 384 pixels
Display aspect ratio : 16:9
Frame rate : 25.000 fps
Color space : YUV
Chroma subsampling : 4:2:0
Bit depth : 8 bits
Scan type : Progressive
Compression mode : Lossy
Bits/(Pixel*Frame) : 0.248
Stream size : 1.19 GiB (81%)
Writing library : XviD 73
Audio
ID : 1
Format : AC-3
Format/Info : Audio Coding 3
Mode extension : CM (complete main)
Codec ID : 2000
Duration : 1h 41mn
Bit rate mode : Constant
Bit rate : 384 Kbps
Channel(s) : 6 channels
Channel positions : Front: L C R, Side: L R, LFE
Sampling rate : 48.0 KHz
Bit depth : 16 bits
Compression mode : Lossy
Stream size : 278 MiB (19%)
Alignment : Split accross interleaves
Interleave, duration : 64 ms (1.60 video frames)
Interleave, preload duration : 500 ms

Автор рипа - ivandubskoj



   Похожие торренты   Торрент   Размер 
В этой теме нет новых непрочитанных сообщений. Снежный ангел (2008) DVDRip от ivandubskoj

24 | 5

746.69 МБ

В этой теме нет новых непрочитанных сообщений. Снежный ангел (2008) DVDRip

243 | 13

1.35 ГБ

В этой теме нет новых непрочитанных сообщений. Снежный ангел (2008) DVDRip

4 | 11

700.15 МБ

В этой теме нет новых непрочитанных сообщений. Снежный ангел (2007) DVDRip

690 | 155

1.37 ГБ

В этой теме нет новых непрочитанных сообщений. Снежный человек / Strange Wilderness (2008) DVDRip

4 | 3

743.47 МБ

В этой теме нет новых непрочитанных сообщений. Мой парень - ангел (2011) BDRip от ivandubskoj

131 | 13

1.46 ГБ

В этой теме нет новых непрочитанных сообщений. Мой парень - ангел (2011) BDRip от ivandubskoj

89 | 9

754.74 МБ




Вы не можете начинать темы
Вы не можете отвечать на сообщения
Вы не можете редактировать свои сообщения
Вы не можете удалять свои сообщения
Вы не можете добавлять вложения

Перейти:  
Для Мосгорсуда, Роскомнадзора и рекламодателей: mosgorsud-torrent[собачка]yandex.ru
 Вход
ppkBB3cker v.2 © 2008-2014 @ PPK
[ Time : 0.018s | 17 Queries | GZIP : On ]

Торрент трекер RUTOR.IN, Не можете зайти на rutor.org? Какой новый адрес рутор? Какое зеркало рутор? Не работает rutor.org и зеркала? Тогда наш торрент специально для вас. Rutor.in неофициальное зеркало rutor. В случае если у Вас заблокирован rutor или вдруг Вы не можете на него зайти, то Вы без труда сможете скачать бесплатно и без рекламы последние новинки кино, игр, сериалов и прочего у нас, на Rutor.in. Не нужно использовать прокси, чтобы зайти на рутор, достаточно воспользоваться нашим ресурсом. Все новые фильмы, игры, сериалы, книги и музыка за 2013 и 2014 годы через торрент бесплатно. Скачивайте фильмы в хорошем качестве, игры для пк, xbox, playstation без регистрации. У нас вы найдете новые Зарубежные сериалы и Русские сериалы 2013, 2014, 2015 годов. Оставайтесь с нами, качайте любимые фильмы, игры, сериалы, книги и музыку.