img image001 image001 image001 image001 image001 image001 image001 image001 image001 image001 image001 image001 image001 image001 image001

Planets Sun Sun Sun
Статистика раздачи
Автор: Nickolas3434 | Размер: 1.09 ГБ | Добавлен: 26 дек 2014
Раздают: 148    Качают: 14
Скачать торрент
Скачать торрент
Описание торрента

СообщениеДобавлено: 26 дек 2014 

Страна: СССР
Производство: Союздетфильм
Жанр: приключения
Год выпуска: 1940
Продолжительность: 01:16:09
Перевод: Не требуется
Cубтитры: нет
Оригинальная аудиодорожка: русский
Режиссер: Александр Разумный
В ролях:
Ливий Щепачев, Петр Савин, Лев Потемкин, Виктор Селезнев, П.Гроховский, В.Ясень, Николай Анненков, Марина Ковалева, Катя Деревщикова, Саша Пупко...
Описание:
Фильм о группе пионеров, помогающих семьям красноармейцев. Действие фильма, ставшего классикой советского кино для детей, происходит в одном из дачных поселков, расположенном вблизи большого города…
В фильмографических справках и каталогах лента часто (ошибочно) указывается как экранизация одноименной повести. Аркадием Гайдаром был написан оригинальный сценарий, на основе которого позже была создана повесть.





Источник: DVD5 R5
Качество видео: DVDRip
Формат видео: AVI
Виде: 688x512 (4:3), 25 fps, XviD ~ 1852 kbps avg, 0.210 bit/pixel
Аудио: 48 kHz, Dolby Digital AC3 2.0, 192 kbps
Раздача от:
Общее
Полное имя : Timur.i.ego.komanda.1940.DVDRip_[New-team]_by_AVP_Studio.avi
Формат : AVI
Формат/Информация : Audio Video Interleave
Размер файла : 1,09 Гбайт
Продолжительность : 1 ч. 16 м.
Общий поток : 2054 Кбит/сек
Программа кодирования : VirtualDubModRus 1.5.10.2 (build 2542/release)
Библиотека кодирования : VirtualDubMod build 2542/release
Видео
Идентификатор : 0
Формат : MPEG-4 Visual
Профиль формата : Advanced Simple@L5
Параметр BVOP формата : 1
Параметр QPel формата : Нет
Параметр GMC формата : Без точки перехода
Параметр матрицы формата : Выборочная
Идентификатор кодека : XVID
Идентификатор кодека/Подсказка : XviD
Продолжительность : 1 ч. 16 м.
Битрейт : 1852 Кбит/сек
Ширина : 688 пикселей
Высота : 512 пикселей
Соотношение сторон : 4:3
Частота кадров : 25,000 кадров/сек
Цветовое пространство : YUV
Субдискретизация насыщенности : 4:2:0
Битовая глубина : 8 бит
Тип развёртки : Прогрессивная
Метод сжатия : С потерями
Бит/(Пиксели*Кадры) : 0.210
Размер потока : 1009 Мбайт (90%)
Библиотека кодирования : XviD 73
Аудио
Идентификатор : 1
Формат : AC-3
Формат/Информация : Audio Coding 3
Расширение режима : CM (complete main)
Параметр Endianness формата : Big
Идентификатор кодека : 2000
Продолжительность : 1 ч. 16 м.
Вид битрейта : Постоянный
Битрейт : 192 Кбит/сек
Каналы : 2 канала
Расположение каналов : Front: L R
Частота : 48,0 КГц
Битовая глубина : 16 бит
Метод сжатия : С потерями
Размер потока : 105 Мбайт (9%)
Выравнивание : Разделение по промежуткам
Продолжительность промежутка : 40 мс. (1,00 видеокадр)
Время предзагрузки промежутка : 500 мс.





   Похожие торренты   Торрент   Размер 
В этой теме нет новых непрочитанных сообщений. Тимур и его команда (1940) DVDRip-AVC от New-Team

55 | 6

1.09 ГБ

В этой теме нет новых непрочитанных сообщений. Тимур и его команда (1940) DVDRip от New-Team

59 | 5

744.25 МБ

В этой теме нет новых непрочитанных сообщений. Тимур и его команда (1940) DVDRip-AVC

52 | 4

1.65 ГБ

В этой теме нет новых непрочитанных сообщений. Тимур и его команда (1940) DVDRip

157 | 7

1.08 ГБ

В этой теме нет новых непрочитанных сообщений. Тимур и его команда - Тимур и его команда (1990) WAV

0 | 54

440.97 МБ

В этой теме нет новых непрочитанных сообщений. Тимур и его команда (1976) DVDRip

438 | 25

1.37 ГБ

В этой теме нет новых непрочитанных сообщений. Тимур и его команда - Магнитоальбом (1988) MP3

3 | 3

71.58 МБ




Вы не можете начинать темы
Вы не можете отвечать на сообщения
Вы не можете редактировать свои сообщения
Вы не можете удалять свои сообщения
Вы не можете добавлять вложения

Перейти:  
Для Мосгорсуда, Роскомнадзора и рекламодателей: mosgorsud-torrent[собачка]yandex.ru
 Вход
ppkBB3cker v.2 © 2008-2014 @ PPK
[ Time : 2.704s | 15 Queries | GZIP : Off ]
CGP output time : 0.011s | 5 Queries | GZIP : Off

Торрент трекер RUTOR.IN, Не можете зайти на rutor.org? Какой новый адрес рутор? Какое зеркало рутор? Не работает rutor.org и зеркала? Тогда наш торрент специально для вас. Rutor.in неофициальное зеркало rutor. В случае если у Вас заблокирован rutor или вдруг Вы не можете на него зайти, то Вы без труда сможете скачать бесплатно и без рекламы последние новинки кино, игр, сериалов и прочего у нас, на Rutor.in. Не нужно использовать прокси, чтобы зайти на рутор, достаточно воспользоваться нашим ресурсом. Все новые фильмы, игры, сериалы, книги и музыка за 2013 и 2014 годы через торрент бесплатно. Скачивайте фильмы в хорошем качестве, игры для пк, xbox, playstation без регистрации. У нас вы найдете новые Зарубежные сериалы и Русские сериалы 2013, 2014, 2015 годов. Оставайтесь с нами, качайте любимые фильмы, игры, сериалы, книги и музыку.