img image001 image001 image001 image001 image001 image001 image001 image001 image001 image001 image001 image001 image001 image001 image001

Planets Sun Sun Sun
Статистика раздачи
Автор: Nickolas3434 | Размер: 17.15 ГБ | Добавлен: 27 дек 2014
Раздают: 43    Качают: 15
Скачать торрент
Скачать торрент
Описание торрента

СообщениеДобавлено: 27 дек 2014 

Информация о фильме
Название: Ласковый май
Год выхода: 2009
Жанр: Драма, музыкальный, биография
Режиссёр: Владимир Виноградов
В ролях: Вячеслав Манучаров, Сергей Романович, Дмитрий Блохин, Виктор Вержбицкий, Людмила Зайцева, Раиса Конюхова, Максим Костромыкин, Максим Литовченко, Виктория Матвеева, Инга Оболдина, Марина Орел, Раиса Рязанова, Пётр Скворцов, Владимир Стеклов, Екатерина Федулова, Данила Чванов, Иван Агапов, Екатерина Садовская, Ольга Турутина, Александр Фисенко, Александр Нехороших, Виктор Бунаков
О фильме: В 1985 году в Советском Союзе началась перестройка и появилась группа "Ласковый май". На их концертах были только аншлаги, от неразделённой любви к ним совершались самоубийства. Фигура Михаила Горбачёва меркла в лучах славы создателя "Ласкового мая" - Андрея Разина. Случайно сделанная фотография на пляже, где Андрей Разин, будучи ребенком, запечатлён с семьей Горбачёвых, перевернула его судьбу. Именно с помощью этой фотографии он стал племянником Горбачёва. Он заявил об этом не напрямую - так, намекнул, и ему мгновенно поверили. Функционеры всех рангов действовали без промедления: перед ним распахнулись двери телевидения и радио, советская эстрада легла к его ногам. Разин ездил по всем детским домам Советского Союза в поисках одарённых детей для своих групп-двойников. "Ласковый май" гастролировал одновременно в нескольких городах, давая в день по 5-6 концертов. За все десять лет существования группы не было ни одного не проданного или сданного билета, каждый пятый житель СССР побывал на их концертах. Прошло время, ушёл Горбачёв, развалился Советский Союз, закончилась эпоха "Ласкового мая", но до сих пор, под современные аранжировки их песен, зажигают на дискотеках современные тинэйджеры.

Выпущено: Россия, DixiMedia
Продолжительность: 01:54:48
Перевод: Не требуется
Файл
Качество: Blu-ray Remux (1080p) [Исходник: Blu-ray 1080p AVC DTS 5.1]
Видео: MPEG-4 AVC, 20 Мбит/с, 1920х1080 (16:9), 24 кадр/с
Аудио: Русский, DTS, 48000 Гц, 1510 Кбит/с, 6 каналов (5.1)
Субтитры: Нет
Навигация по главам: Есть (Сохранены оригинальные чаптеры как на Blu-ray)

• Роль Андрея Разина мог сыграть Алексей Воробьёв.
• Сергей Кузнецов покинул группу в 1989 году, в фильме же он остаётся в ней до самого конца.
• История с комсомольцами-рэкетирами не выглядит правдоподобной, если учесть, что в 1991 году КПСС не являлась «партией власти», а сам комсомол перестал существовать ещё в 1990-ом.
• В сцене, когда ребята устраивают драку на контрольной, видно, что Серёжа пишет ручкой фирмы Nixon. В России эти ручки появились лишь в 1999 году.
General
Unique ID : 209999784371409274709367500773924887680 (0x9DFC7CBFED5A0D37B03E9ABD0CAD5C80)
Complete name : Laskovyy.may.2009.BDRemux.1080p.mkv
Format : Matroska
File size : 17.2 GiB
Duration : 1h 54mn
Overall bit rate : 21.4 Mbps
Movie name : Ласковый май (2009) Blu-ray Remux (1080p)
Encoded date : UTC 2014-12-25 20:49:11
Writing application : mkvmerge v6.1.0 ('Old Devil') built on Mar 4 2013 09:10:42
Writing library : libebml v1.3.0 + libmatroska v1.4.0
Video
ID : 1
Format : AVC
Format/Info : Advanced Video Codec
Format profile : High@L4.1
Format settings, CABAC : Yes
Format settings, ReFrames : 4 frames
Codec ID : V_MPEG4/ISO/AVC
Duration : 1h 54mn
Bit rate mode : Constant
Bit rate : 20.0 Mbps
Width : 1 920 pixels
Height : 1 080 pixels
Display aspect ratio : 16:9
Frame rate : 24.000 fps
Standard : NTSC
Color space : YUV
Chroma subsampling : 4:2:0
Bit depth : 8 bits
Scan type : Progressive
Bits/(Pixel*Frame) : 0.402
Stream size : 15.6 GiB (91%)
Title : Ласковый май (2009)
Language : Russian
Color primaries : BT.709-5, BT.1361, IEC 61966-2-4, SMPTE RP177
Transfer characteristics : BT.709-5, BT.1361
Matrix coefficients : BT.709-5, BT.1361, IEC 61966-2-4 709, SMPTE RP177
Audio
ID : 2
Format : DTS
Format/Info : Digital Theater Systems
Codec ID : A_DTS
Duration : 1h 54mn
Bit rate mode : Constant
Bit rate : 1 510 Kbps
Channel(s) : 6 channels
Channel positions : Front: L C R, Side: L R, LFE
Sampling rate : 48.0 KHz
Bit depth : 24 bits
Compression mode : Lossy
Stream size : 1.21 GiB (7%)
Title : Original
Language : Russian
Menu
00:00:00.000 : en:Chapter 01
00:07:32.416 : en:Chapter 02
00:11:33.583 : en:Chapter 03
00:16:22.291 : en:Chapter 04
00:23:55.291 : en:Chapter 05
00:27:18.458 : en:Chapter 06
00:31:06.166 : en:Chapter 07
00:35:16.791 : en:Chapter 08
00:47:42.250 : en:Chapter 09
00:55:54.333 : en:Chapter 10
01:03:14.583 : en:Chapter 11
01:13:41.041 : en:Chapter 12
01:16:02.416 : en:Chapter 13
01:22:46.041 : en:Chapter 14
01:32:30.875 : en:Chapter 15
01:35:53.416 : en:Chapter 16
01:44:35.208 : en:Chapter 17
01:52:44.875 : en:Chapter 18
01:54:48.166 : en:Chapter 19




Сборка ремукса - ivandubskoj



   Похожие торренты   Торрент   Размер 
В этой теме нет новых непрочитанных сообщений. Ласковый май (2009) BDRip 720p от ivandubskoj | Лицензия

192 | 26

4.37 ГБ

В этой теме нет новых непрочитанных сообщений. О, счастливчик! (2009) Blu-Ray Remux 1080p от ivandubskoj | Лицензия

17 | 6

18.18 ГБ

В этой теме нет новых непрочитанных сообщений. О, счастливчик! (2009) Blu-Ray Remux 1080p от ivandubskoj

4 | 17

17.19 ГБ

В этой теме нет новых непрочитанных сообщений. Код апокалипсиса (2007) Blu-Ray Remux 1080p от ivandubskoj | Лицензия

17 | 4

20.51 ГБ

В этой теме нет новых непрочитанных сообщений. Беременный (2011) Blu-ray Remux 1080p от ivandubskoj | Лицензия

4 | 6

13.63 ГБ

В этой теме нет новых непрочитанных сообщений. Переводчица / The Interpreter (2005) Blu-Ray EUR Remux 1080p от ivandubskoj | D, P, P2 | Лицензия

37 | 11

30.87 ГБ

В этой теме нет новых непрочитанных сообщений. Любовь-морковь 2 (2008) Blu-Ray Remux 1080p от ivandubskoj | Лицензия

18 | 13

16.98 ГБ




Вы не можете начинать темы
Вы не можете отвечать на сообщения
Вы не можете редактировать свои сообщения
Вы не можете удалять свои сообщения
Вы не можете добавлять вложения

Перейти:  
Для Мосгорсуда, Роскомнадзора и рекламодателей: mosgorsud-torrent[собачка]yandex.ru
 Вход
ppkBB3cker v.2 © 2008-2014 @ PPK
[ Time : 0.019s | 17 Queries | GZIP : On ]

Торрент трекер RUTOR.IN, Не можете зайти на rutor.org? Какой новый адрес рутор? Какое зеркало рутор? Не работает rutor.org и зеркала? Тогда наш торрент специально для вас. Rutor.in неофициальное зеркало rutor. В случае если у Вас заблокирован rutor или вдруг Вы не можете на него зайти, то Вы без труда сможете скачать бесплатно и без рекламы последние новинки кино, игр, сериалов и прочего у нас, на Rutor.in. Не нужно использовать прокси, чтобы зайти на рутор, достаточно воспользоваться нашим ресурсом. Все новые фильмы, игры, сериалы, книги и музыка за 2013 и 2014 годы через торрент бесплатно. Скачивайте фильмы в хорошем качестве, игры для пк, xbox, playstation без регистрации. У нас вы найдете новые Зарубежные сериалы и Русские сериалы 2013, 2014, 2015 годов. Оставайтесь с нами, качайте любимые фильмы, игры, сериалы, книги и музыку.