img image001 image001 image001 image001 image001 image001 image001 image001 image001 image001 image001 image001 image001 image001 image001

Planets Sun Sun Sun
Статистика раздачи
Автор: Nickolas3434 | Размер: 745.31 МБ | Добавлен: 28 дек 2014
Раздают: 723    Качают: 40
Скачать торрент
Скачать торрент
Описание торрента

СообщениеДобавлено: 28 дек 2014 

Информация о фильме
Название: Кровь с молоком
Год выхода: 2014
Жанр: Комедия, мелодрама
Режиссёр: Александр Хван
В ролях: Ольга Фадеева, Андрей Фролов, Яна Крайнова, Владислав Дунаев, Михаил Владимиров, Илья Коробко, Илья Исаев, Александр Обласов

О фильме: Евгения, столичная женщина с сильным характером, работает начальницей следственного отдела. После развода она выстроила защитный «панцирь» и не может найти достойного спутника. Костя — дояр на ферме в маленькой деревеньке. Его личная жизнь тоже не ладится, и, кажется, не предвидится никаких перемен. Волей случая герои знакомятся на «Свидании вслепую», где Женя представляется воспитательницей детсада, а Костя — богатым предпринимателем. Обман влечет за собой немало казусов и противоречий, и чем дальше, тем сложнее оказывается выпутаться из него...



Выпущено: Россия, Кинокомпания "Русское"
Продолжительность: 01:35:33
Перевод: Не требуется

Файл
Качество: HDTVRip [Исходник: HDTV (1080i)]
Видео: XviD, 953 Кбит/с, 656x368 (16:9), 25 кадр/с
Аудио: Русский, MP3, 48000 Гц, 128 Кбит/с, 2 канала (Стерео)



General
Complete name : Krov'.s.molokom.2014.HDTVRip.745MB.avi
Format : AVI
Format/Info : Audio Video Interleave
File size : 745 MiB
Duration : 1h 35mn
Overall bit rate : 1 090 Kbps
Writing application : VirtualDubMod 1.5.10.3 (build 2550/release)
Writing library : VirtualDubMod build 2550/release
Copyright : rip by ivandubskoj

Video
ID : 0
Format : MPEG-4 Visual
Format profile : Advanced Simple@L5
Format settings, BVOP : 2
Format settings, QPel : No
Format settings, GMC : No warppoints
Format settings, Matrix : Custom
Codec ID : XVID
Codec ID/Hint : XviD
Duration : 1h 35mn
Bit rate : 953 Kbps
Width : 656 pixels
Height : 368 pixels
Display aspect ratio : 16:9
Frame rate : 25.000 fps
Color space : YUV
Chroma subsampling : 4:2:0
Bit depth : 8 bits
Scan type : Progressive
Compression mode : Lossy
Bits/(Pixel*Frame) : 0.158
Stream size : 651 MiB (87%)
Writing library : XviD 73

Audio
ID : 1
Format : MPEG Audio
Format version : Version 1
Format profile : Layer 3
Codec ID : 55
Codec ID/Hint : MP3
Duration : 1h 35mn
Bit rate mode : Constant
Bit rate : 128 Kbps
Channel(s) : 2 channels
Sampling rate : 48.0 KHz
Compression mode : Lossy
Stream size : 87.5 MiB (12%)
Alignment : Aligned on interleaves
Interleave, duration : 40 ms (1.00 video frame)
Interleave, preload duration : 504 ms
Writing library : LAME3.99r
Encoding settings : -m s -V 4 -q 0 -lowpass 17 -b 128



Автор рипа - ivandubskoj



   Похожие торренты   Торрент   Размер 
В этой теме нет новых непрочитанных сообщений. Кровь с молоком (2014) HDTVRip от Files-x

1542 | 99

1.37 ГБ

В этой теме нет новых непрочитанных сообщений. Кровь с молоком (2014) HDTVRip 720p от MediaClub

529 | 39

2.43 ГБ

В этой теме нет новых непрочитанных сообщений. Кровь с молоком (2014) SATRip

2685 | 156

1.33 ГБ

В этой теме нет новых непрочитанных сообщений. Кровь с молоком (2014) WEB-DLRip от Generalfilm

493 | 17

1.45 ГБ

В этой теме нет новых непрочитанных сообщений. Кровь с молоком (2014) HDTV 1080i от MediaClub

290 | 27

4.79 ГБ

В этой теме нет новых непрочитанных сообщений. Передел. Кровь с молоком [01-12 из 12] (2009) DVDRip

196 | 24

5.27 ГБ

В этой теме нет новых непрочитанных сообщений. Кровь с молоком / Six Ways to Sunday (1997) DVDRip-AVC от Temperest

139 | 34

2.09 ГБ




Вы не можете начинать темы
Вы не можете отвечать на сообщения
Вы не можете редактировать свои сообщения
Вы не можете удалять свои сообщения
Вы не можете добавлять вложения

Перейти:  
Для Мосгорсуда, Роскомнадзора и рекламодателей: mosgorsud-torrent[собачка]yandex.ru
 Вход
ppkBB3cker v.2 © 2008-2014 @ PPK
[ Time : 2.194s | 15 Queries | GZIP : On ]

Торрент трекер RUTOR.IN, Не можете зайти на rutor.org? Какой новый адрес рутор? Какое зеркало рутор? Не работает rutor.org и зеркала? Тогда наш торрент специально для вас. Rutor.in неофициальное зеркало rutor. В случае если у Вас заблокирован rutor или вдруг Вы не можете на него зайти, то Вы без труда сможете скачать бесплатно и без рекламы последние новинки кино, игр, сериалов и прочего у нас, на Rutor.in. Не нужно использовать прокси, чтобы зайти на рутор, достаточно воспользоваться нашим ресурсом. Все новые фильмы, игры, сериалы, книги и музыка за 2013 и 2014 годы через торрент бесплатно. Скачивайте фильмы в хорошем качестве, игры для пк, xbox, playstation без регистрации. У нас вы найдете новые Зарубежные сериалы и Русские сериалы 2013, 2014, 2015 годов. Оставайтесь с нами, качайте любимые фильмы, игры, сериалы, книги и музыку.