img image001 image001 image001 image001 image001 image001 image001 image001 image001 image001 image001 image001 image001 image001 image001 image001
Planets Sun Sun Sun
Статистика раздачи
Автор: Nickolas3434 | Размер: 744.73 МБ | Добавлен: 31 дек 2014
Раздают: 145    Качают: 16
Скачать торрент
Скачать торрент
Описание торрента

СообщениеДобавлено: 31 дек 2014 

Информация о фильме
Название: Берега любви
Год выхода: 2013
Жанр: Мелодрама
Режиссёр: Андрей Селиванов
В ролях: Анна Ардова, Ярослав Бойко, Анатолий Лобоцкий, Карина Карпухина, Алина Кизиярова, Людмила Пошехонова, Михаил Левченко, Наталья Асанкина, Павел Лемешко, Пётр Рабчевский
О фильме:
Вера - ответственная и бойкая деревенская труженица, из тех, что “коня на скаку остановят». Она и бакещица, и егерь, и пасечник - и бессменный блюститель порядка. Везде Вера успевает - вот только в личной жизни счастья нет. Муж изменяет ей, и, прогнав его, героиня остается одна с дочерьми. Кажется, никаких перемен в жизни Веры не предвидится, но неожиданно в деревню приезжает доктор из города. Он сразу же отмечает, что перед ним не командир в юбке, а красивая женщина...

Страна: Россия
Студия: Кинокомпания "Русское"
Продолжительность: 01:31:16
Перевод: Не требуется
Файл
Кодек: XviD
Качество: HDTVRip [Исходник: HDTV (1080i)]
Видео: XviD, 1003 Кбит/с, 656x368 (16:9), 25 кадр/с
Звук: Русский, MP3, 48000 Гц, 128 Кбит/с, 2 канала (Стерео)
Субтитры: Нет

General
Complete name : Berega.lubvi.2013.HDTVRip.745MB.avi
Format : AVI
Format/Info : Audio Video Interleave
File size : 745 MiB
Duration : 1h 31mn
Overall bit rate : 1 141 Kbps
Writing application : VirtualDubMod 1.5.10.3 (build 2550/release)
Writing library : VirtualDubMod build 2550/release
Copyright : rip by ivandubskoj
Video
ID : 0
Format : MPEG-4 Visual
Format profile : Advanced Simple@L5
Format settings, BVOP : 2
Format settings, QPel : No
Format settings, GMC : No warppoints
Format settings, Matrix : Custom
Codec ID : XVID
Codec ID/Hint : XviD
Duration : 1h 31mn
Bit rate : 1 003 Kbps
Width : 656 pixels
Height : 368 pixels
Display aspect ratio : 16:9
Frame rate : 25.000 fps
Color space : YUV
Chroma subsampling : 4:2:0
Bit depth : 8 bits
Scan type : Progressive
Compression mode : Lossy
Bits/(Pixel*Frame) : 0.166
Stream size : 655 MiB (88%)
Writing library : XviD 73
Audio
ID : 1
Format : MPEG Audio
Format version : Version 1
Format profile : Layer 3
Codec ID : 55
Codec ID/Hint : MP3
Duration : 1h 31mn
Bit rate mode : Constant
Bit rate : 128 Kbps
Channel(s) : 2 channels
Sampling rate : 48.0 KHz
Compression mode : Lossy
Stream size : 83.6 MiB (11%)
Alignment : Aligned on interleaves
Interleave, duration : 40 ms (1.00 video frame)
Interleave, preload duration : 504 ms
Writing library : LAME3.99r
Encoding settings : -m s -V 4 -q 0 -lowpass 17 -b 128

Автор рипа - ivandubskoj



   Похожие торренты   Торрент   Размер 
В этой теме нет новых непрочитанных сообщений. Берега любви (2013) HDTVRip от Files-x

39 | 3

1.36 ГБ

В этой теме нет новых непрочитанных сообщений. Берега любви (2013) WEB-DLRip от Files-x

14 | 3

1.37 ГБ

В этой теме нет новых непрочитанных сообщений. Берега любви (2013) WEB-DLRip-AVC от Files-x

39 | 4

1.37 ГБ

В этой теме нет новых непрочитанных сообщений. Берега [01-08 из 08] (2012) HDTVRip

32 | 7

4.3 ГБ

В этой теме нет новых непрочитанных сообщений. Везучая (2013) HDTVRip от ivandubskoj

242 | 12

720.97 МБ

В этой теме нет новых непрочитанных сообщений. Берега [01-08 из 08] (2012) HDTVRip 720p

0 | 4

9.82 ГБ

В этой теме нет новых непрочитанных сообщений. Мой белый и пушистый (2013) HDTVRip от ivandubskoj

209 | 143

745.99 МБ




Вы не можете начинать темы
Вы не можете отвечать на сообщения
Вы не можете редактировать свои сообщения
Вы не можете удалять свои сообщения
Вы не можете добавлять вложения

Перейти:  
Для Мосгорсуда, Роскомнадзора и рекламодателей: mosgorsud-torrent[собачка]yandex.ru
 Вход
ppkBB3cker v.2 © 2008-2014 @ PPK
[ Time : 0.048s | 16 Queries | GZIP : Off ]

cron