img image001 image001 image001 image001 image001 image001 image001 image001 image001 image001 image001 image001 image001 image001 image001

Planets Sun Sun Sun
Статистика раздачи
Автор: Nickolas3434 | Размер: 736.38 МБ | Добавлен: 31 дек 2014
Раздают: 1196    Качают: 62
Скачать торрент
Скачать торрент
Описание торрента

СообщениеДобавлено: 31 дек 2014 

Информация о фильме
Название: Таблетка от слёз
Год выхода: 2014
Жанр: Мелодрама, драма
Режиссёр: Серик Бейсеуов
В ролях: Светлана Павлова, Дмитрий Блажко, Анна Сергеева, Антон Батырев, Инна Мирошниченко, Николай Боклан, Женя Лебедин, Татьяна Казанцева, Денис Христов, Наталья Вихрян, Татьяна Зиновенко, Светлана Смирнова
О фильме:
Лариса - молодая красивая студентка пединститута. И хотя у неё есть комната в общежитии, там она практически не появляется - вот уже почти год у неё длится роман с Ромой - москвичом из состоятельной семьи. Своё высшее образование Лариса скорее «домучивает ради корочки», ведь она уверена в том, что её любовь взаимна и до счастливого замужества рукой подать. Правда, в её планы пока не входят совместные дети. Для Ларисы сейчас главное - посвятить всю себя Роме. Но всё оказывается не так уж здорово. Поняв, что Лариса хочет за него замуж, легкомысленный и привыкший жить за счёт родителей раздолбай Роман, испугавшись серьёзных отношений, бросает девушку. Даже ситуацию с беременностью Ларисы, приведшую парня в ужас, он планирует использовать с пользой для себя. Лариса понимает, что кроме работы по образованию ей ничего не светит. Среди детей, к которым Лариса вскоре привыкает, есть мальчик Никита. Малыша приводит и забирает отец Максим. Никто и никогда не видел мать Никиты. Он достаточно закрытый и проблемный мальчик, в связи с чем у Ларисы возникает конфликт с его папой, набравший со временем совершенно иные краски.

Страна: Россия, Украина
Студия: Кинокомпания "УПС", ЗАО "Новая студия"
Продолжительность: 01:30:20
Перевод: Не требуется
Файл
Кодек: XviD
Качество: HDTVRip [Исходник: HDTV (1080i)]
Видео: XviD, 1002 Кбит/с, 656x368 (16:9), 25 кадр/с
Звук: Русский, MP3, 48000 Гц, 128 Кбит/с, 2 канала (Стерео)
Субтитры: Нет

General
Complete name : Tabletka.ot.slez.2014.HDTVRip.736MB.avi
Format : AVI
Format/Info : Audio Video Interleave
File size : 736 MiB
Duration : 1h 30mn
Overall bit rate : 1 140 Kbps
Writing application : VirtualDubMod 1.5.10.3 (build 2550/release)
Writing library : VirtualDubMod build 2550/release
Copyright : rip by ivandubskoj
Video
ID : 0
Format : MPEG-4 Visual
Format profile : Advanced Simple@L5
Format settings, BVOP : 2
Format settings, QPel : No
Format settings, GMC : No warppoints
Format settings, Matrix : Custom
Codec ID : XVID
Codec ID/Hint : XviD
Duration : 1h 30mn
Bit rate : 1 002 Kbps
Width : 656 pixels
Height : 368 pixels
Display aspect ratio : 16:9
Frame rate : 25.000 fps
Color space : YUV
Chroma subsampling : 4:2:0
Bit depth : 8 bits
Scan type : Progressive
Compression mode : Lossy
Bits/(Pixel*Frame) : 0.166
Stream size : 647 MiB (88%)
Writing library : XviD 73
Audio
ID : 1
Format : MPEG Audio
Format version : Version 1
Format profile : Layer 3
Codec ID : 55
Codec ID/Hint : MP3
Duration : 1h 30mn
Bit rate mode : Constant
Bit rate : 128 Kbps
Channel(s) : 2 channels
Sampling rate : 48.0 KHz
Compression mode : Lossy
Stream size : 82.7 MiB (11%)
Alignment : Aligned on interleaves
Interleave, duration : 40 ms (1.00 video frame)
Interleave, preload duration : 504 ms
Writing library : LAME3.99r
Encoding settings : -m s -V 4 -q 0 -lowpass 17 -b 128

Автор рипа - ivandubskoj



   Похожие торренты   Торрент   Размер 
В этой теме нет новых непрочитанных сообщений. Таблетка от слез (2014) HDTVRip от Files-x

1307 | 93

1.37 ГБ

В этой теме нет новых непрочитанных сообщений. Таблетка от слез (2014) HDTVRip 720p от MediaClub

385 | 28

2.43 ГБ

В этой теме нет новых непрочитанных сообщений. Таблетка от слёз (2014) SATRip

1111 | 56

1.37 ГБ

В этой теме нет новых непрочитанных сообщений. Таблетка от слез (2014) HDTV 1080i от MediaClub

175 | 24

5.44 ГБ

В этой теме нет новых непрочитанных сообщений. Татьяна Самойлова. Моих слез никто не видел (2014) HDTVRip

12 | 5

585.7 МБ

В этой теме нет новых непрочитанных сообщений. Таблетка [01-50] (2016) HDTVRip от Generalfilm

33 | 30

19.58 ГБ

В этой теме нет новых непрочитанных сообщений. Таблетка [01] (2016) HDTVRip от Generalfilm

50 | 33

2.38 ГБ




Вы не можете начинать темы
Вы не можете отвечать на сообщения
Вы не можете редактировать свои сообщения
Вы не можете удалять свои сообщения
Вы не можете добавлять вложения

Перейти:  
Для Мосгорсуда, Роскомнадзора и рекламодателей: mosgorsud-torrent[собачка]yandex.ru
 Вход
ppkBB3cker v.2 © 2008-2014 @ PPK
[ Time : 7.186s | 15 Queries | GZIP : Off ]

Торрент трекер RUTOR.IN, Не можете зайти на rutor.org? Какой новый адрес рутор? Какое зеркало рутор? Не работает rutor.org и зеркала? Тогда наш торрент специально для вас. Rutor.in неофициальное зеркало rutor. В случае если у Вас заблокирован rutor или вдруг Вы не можете на него зайти, то Вы без труда сможете скачать бесплатно и без рекламы последние новинки кино, игр, сериалов и прочего у нас, на Rutor.in. Не нужно использовать прокси, чтобы зайти на рутор, достаточно воспользоваться нашим ресурсом. Все новые фильмы, игры, сериалы, книги и музыка за 2013 и 2014 годы через торрент бесплатно. Скачивайте фильмы в хорошем качестве, игры для пк, xbox, playstation без регистрации. У нас вы найдете новые Зарубежные сериалы и Русские сериалы 2013, 2014, 2015 годов. Оставайтесь с нами, качайте любимые фильмы, игры, сериалы, книги и музыку.