img image001 image001 image001 image001 image001 image001 image001 image001 image001 image001 image001 image001 image001 image001 image001

Planets Sun Sun Sun
Статистика раздачи
Автор: Nickolas3434 | Размер: 1.09 ГБ | Добавлен: 31 дек 2014
Раздают: 51    Качают: 6
Скачать торрент
Скачать торрент
Описание торрента

СообщениеДобавлено: 31 дек 2014 


Страна: СССР
Производство: Киностудия им. М. Горького
Жанр: Детский, приключения
Год выпуска: 1964
Продолжительность: 01:16:24
Язык: Русский
Режиссер: Эдуард Бочаров
В ролях: Василий Шукшин, Светлана Дружинина, Андрей Бухаров, Вадим Захарченко, Всеволод Кузнецов, Иван Жеваго, Татьяна Антипина, Станислав Любшин, Николай Крючков, Лидия Федосеева-Шукшина, Виллор Кузнецов
Описание: Сашка впервые отправился с рыбачьей артелью в море во время путины. Зоркий взгляд мальчишки следил за каждым действием и поступком взрослых. К моменту возвращения на берег он стал полноправным членом рыбачьей артели.

Файл
Тип релиза: SATRip
Видео: 688x288 (2.39:1), 23.976 fps, XviD MPEG-4 ~1784 kbps avg, 0.38 bit/pixel
Аудио 1: 48 kHz, AC3 Dolby Digital, 2/0 (L,R) ch, ~256 kbps (русский)
Общее
Полное имя : D:ААА2Какое оно, море.avi
Формат : AVI
Формат/Информация : Audio Video Interleave
Размер файла : 1,09 Гбайт
Продолжительность : 1 ч. 16 м.
Общий поток : 2050 Кбит/сек
Программа кодирования : VirtualDubMod 1.5.10.3 | www.virtualdub-fr.org || (build 2550/release)
Библиотека кодирования : VirtualDubMod build 2550/release
Видео
Идентификатор : 0
Формат : MPEG-4 Visual
Профиль формата : Advanced Simple@L5
Параметр BVOP формата : 2
Параметр QPel формата : Нет
Параметр GMC формата : Без точки перехода
Параметр матрицы формата : Default (MPEG)
Режим смешивания : Сжатый битовый поток
Идентификатор кодека : XVID
Идентификатор кодека/Подсказка : XviD
Продолжительность : 1 ч. 16 м.
Битрейт : 1785 Кбит/сек
Ширина : 688 пикселей
Высота : 288 пикселей
Соотношение сторон : 2,40:1
Частота кадров : 23,976 кадра/сек
Цветовое пространство : YUV
Субдискретизация насыщенности : 4:2:0
Битовая глубина : 8 бит
Тип развёртки : Прогрессивная
Метод сжатия : С потерями
Бит/(Пиксели*Кадры) : 0.376
Размер потока : 976 Мбайт (87%)
Библиотека кодирования : XviD 1.2.1 (UTC 2008-12-04)
Аудио
Идентификатор : 1
Формат : AC-3
Формат/Информация : Audio Coding 3
Расширение режима : CM (complete main)
Параметр Endianness формата : Big
Идентификатор кодека : 2000
Продолжительность : 1 ч. 16 м.
Вид битрейта : Постоянный
Битрейт : 256 Кбит/сек
Каналы : 2 канала
Расположение каналов : Front: L R
Частота : 48,0 КГц
Битовая глубина : 16 бит
Метод сжатия : С потерями
Размер потока : 140 Мбайт (12%)
Выравнивание : Разделение по промежуткам
Продолжительность промежутка : 42 мс. (1,00 видеокадр)
Время предзагрузки промежутка : 500 мс.

Релиз:



   Похожие торренты   Торрент   Размер 
В этой теме нет новых непрочитанных сообщений. Северное море — мертвое море / Nordsee ist Mordsee (1976) DVDRip | L1

205 | 140

1.36 ГБ

В этой теме нет новых непрочитанных сообщений. Море тишины / Море спокойствия / Verder dan de maan (2003) DVDRip | P

7 | 19

1.46 ГБ

В этой теме нет новых непрочитанных сообщений. Северное море — мертвое море / Nordsee ist Mordsee (1976) DVDRip-AVC | L1

23 | 8

1.26 ГБ

В этой теме нет новых непрочитанных сообщений. Сборник избранных рассказов из журналов Юность 1964 года (1964) FB2

208 | 19

19.22 МБ

В этой теме нет новых непрочитанных сообщений. Замужняя женщина / Une femme mariée: Suite de fragments d'un film tourné en 1964 (1964) BDRip | A, Sub

273 | 50

1.6 ГБ

В этой теме нет новых непрочитанных сообщений. Море (2012) SATRip от КинозалSAT

2 | 2

700.02 МБ

В этой теме нет новых непрочитанных сообщений. Море. Горы. Керамзит [01 из 08] (2013) SATRip

175 | 106

679.77 МБ




Вы не можете начинать темы
Вы не можете отвечать на сообщения
Вы не можете редактировать свои сообщения
Вы не можете удалять свои сообщения
Вы не можете добавлять вложения

Перейти:  
Для Мосгорсуда, Роскомнадзора и рекламодателей: mosgorsud-torrent[собачка]yandex.ru
 Вход
ppkBB3cker v.2 © 2008-2014 @ PPK
[ Time : 0.035s | 14 Queries | GZIP : Off ]

Торрент трекер RUTOR.IN, Не можете зайти на rutor.org? Какой новый адрес рутор? Какое зеркало рутор? Не работает rutor.org и зеркала? Тогда наш торрент специально для вас. Rutor.in неофициальное зеркало rutor. В случае если у Вас заблокирован rutor или вдруг Вы не можете на него зайти, то Вы без труда сможете скачать бесплатно и без рекламы последние новинки кино, игр, сериалов и прочего у нас, на Rutor.in. Не нужно использовать прокси, чтобы зайти на рутор, достаточно воспользоваться нашим ресурсом. Все новые фильмы, игры, сериалы, книги и музыка за 2013 и 2014 годы через торрент бесплатно. Скачивайте фильмы в хорошем качестве, игры для пк, xbox, playstation без регистрации. У нас вы найдете новые Зарубежные сериалы и Русские сериалы 2013, 2014, 2015 годов. Оставайтесь с нами, качайте любимые фильмы, игры, сериалы, книги и музыку.