img image001 image001 image001 image001 image001 image001 image001 image001 image001 image001 image001 image001 image001 image001 image001

Planets Sun Sun Sun
Статистика раздачи
Автор: Nickolas3434 | Размер: 745.07 МБ | Добавлен: 31 дек 2014
Раздают: 321    Качают: 32
Скачать торрент
Скачать торрент
Описание торрента

СообщениеДобавлено: 31 дек 2014 

Информация о фильме
Название: Проверка на любовь
Год выхода: 2013
Жанр: Мелодрама, драма
Режиссёр: Игорь Войтулевич
В ролях: Глафира Тарханова, Юрий Батурин, Илья Оболонков, Наталья Рудова, Саша Булатов, Екатерина Копанова, Светлана Колпакова, Александр Воробьёв, Александр Булатов, Сергей Ларин, Алла Музалёва, Леонид Лефтеров, Анна Громова, Михаил Клименюк
О фильме:
Любовь - сильное и прекрасное чувство. Кто-то годами ищет ее и не может найти, а кто-то находит, но по разным причинам теряет. Всё что остается человеку, потерявшему любовь, это каждый раз задаваться вопросом почему, как так случилось, что было сделано не так? Что послужило причиной? А причин, как известно, великое множество. Ведь очень часто, обретя любовь, люди не прилагают ни каких усилий, чтобы её сохранить, сберечь от предательства, а то и вовсе не выдерживают испытания расстояниями и разлукой. Молодым людям всё это предстоит пережить и осмыслить самостоятельно. Каков будет результат - покажет время.

Страна: Россия
Студия: М. Продакшн, Кинокомпания "Русское"
Продолжительность: 01:32:24
Перевод: Не требуется
Файл
Кодек: XviD
Качество: HDTVRip [Исходник: HDTV (1080i)]
Видео: XviD, 990 Кбит/с, 656x368 (16:9), 25 кадр/с
Звук: Русский, MP3, 48000 Гц, 128 Кбит/с, 2 канала (Стерео)
Субтитры: Нет

General
Complete name : Proverka.na.lubov'.2013.HDTVRip.avi
Format : AVI
Format/Info : Audio Video Interleave
File size : 745 MiB
Duration : 1h 32mn
Overall bit rate : 1 127 Kbps
Writing application : VirtualDubMod 1.5.10.3 (build 2550/release)
Writing library : VirtualDubMod build 2550/release
Copyright : rip by ivandubskoj
Video
ID : 0
Format : MPEG-4 Visual
Format profile : Advanced Simple@L5
Format settings, BVOP : 2
Format settings, QPel : No
Format settings, GMC : No warppoints
Format settings, Matrix : Custom
Codec ID : XVID
Codec ID/Hint : XviD
Duration : 1h 32mn
Bit rate : 990 Kbps
Width : 656 pixels
Height : 368 pixels
Display aspect ratio : 16:9
Frame rate : 25.000 fps
Color space : YUV
Chroma subsampling : 4:2:0
Bit depth : 8 bits
Scan type : Progressive
Compression mode : Lossy
Bits/(Pixel*Frame) : 0.164
Stream size : 654 MiB (88%)
Writing library : XviD 73
Audio
ID : 1
Format : MPEG Audio
Format version : Version 1
Format profile : Layer 3
Codec ID : 55
Codec ID/Hint : MP3
Duration : 1h 32mn
Bit rate mode : Constant
Bit rate : 128 Kbps
Channel(s) : 2 channels
Sampling rate : 48.0 KHz
Compression mode : Lossy
Stream size : 84.6 MiB (11%)
Alignment : Aligned on interleaves
Interleave, duration : 40 ms (1.00 video frame)
Interleave, preload duration : 504 ms
Writing library : LAME3.99r
Encoding settings : -m s -V 4 -q 0 -lowpass 17 -b 128


Автор рипа - ivandubskoj



   Похожие торренты   Торрент   Размер 
В этой теме нет новых непрочитанных сообщений. Проверка на любовь (2013) HDTVRip от Files-x

275 | 13

1.37 ГБ

В этой теме нет новых непрочитанных сообщений. Храни её, любовь (2014) HDTVRip от ivandubskoj

510 | 21

746.61 МБ

В этой теме нет новых непрочитанных сообщений. Настоящая любовь (2012) HDTVRip от ivandubskoj

180 | 25

1.46 ГБ

В этой теме нет новых непрочитанных сообщений. Полцарства за любовь (2014) HDTVRip от ivandubskoj

1315 | 50

1.46 ГБ

В этой теме нет новых непрочитанных сообщений. Храни её, любовь (2014) HDTVRip от ivandubskoj

1691 | 126

1.46 ГБ

В этой теме нет новых непрочитанных сообщений. Любовь и Роман (2014) HDTVRip от ivandubskoj

269 | 22

745.7 МБ

В этой теме нет новых непрочитанных сообщений. Полцарства за любовь (2014) HDTVRip от ivandubskoj

1159 | 71

745.66 МБ




Вы не можете начинать темы
Вы не можете отвечать на сообщения
Вы не можете редактировать свои сообщения
Вы не можете удалять свои сообщения
Вы не можете добавлять вложения

Перейти:  
Для Мосгорсуда, Роскомнадзора и рекламодателей: mosgorsud-torrent[собачка]yandex.ru
 Вход
ppkBB3cker v.2 © 2008-2014 @ PPK
[ Time : 0.052s | 17 Queries | GZIP : Off ]

Торрент трекер RUTOR.IN, Не можете зайти на rutor.org? Какой новый адрес рутор? Какое зеркало рутор? Не работает rutor.org и зеркала? Тогда наш торрент специально для вас. Rutor.in неофициальное зеркало rutor. В случае если у Вас заблокирован rutor или вдруг Вы не можете на него зайти, то Вы без труда сможете скачать бесплатно и без рекламы последние новинки кино, игр, сериалов и прочего у нас, на Rutor.in. Не нужно использовать прокси, чтобы зайти на рутор, достаточно воспользоваться нашим ресурсом. Все новые фильмы, игры, сериалы, книги и музыка за 2013 и 2014 годы через торрент бесплатно. Скачивайте фильмы в хорошем качестве, игры для пк, xbox, playstation без регистрации. У нас вы найдете новые Зарубежные сериалы и Русские сериалы 2013, 2014, 2015 годов. Оставайтесь с нами, качайте любимые фильмы, игры, сериалы, книги и музыку.
cron