img image001 image001 image001 image001 image001 image001 image001 image001 image001 image001 image001 image001 image001 image001 image001

Planets Sun Sun Sun
Статистика раздачи
Автор: Nickolas3434 | Размер: 1.77 ГБ | Добавлен: 31 дек 2014
Раздают: 186    Качают: 14
Скачать торрент
Скачать торрент
Описание торрента

СообщениеДобавлено: 31 дек 2014 

Оригинальное название: Глухарь. Приходи, Новый год!
Год выпуска: 2009
Жанр: Детектив, комедия
Продолжительность: 01:31:50
Режиссер: Тимур Алпатов, Юрий Попович, Валерий Мызников
В ролях: Александр Фурсенко, Максим Аверин, Денис Рожков, Виктория Тарасова, Мария Болтнева, Анастасия Мельникова, Андрей Федорцов, Владимир Фекленко, Софья Хилькова, Александр Бобров, Алексей Воробьёв, Владислав Котлярский, Борис Покровский, Алёна Бочкарева, Юрий Пономаренко, Сергей Брюн
Описание: Грядёт Новый год. Глухарев и Антошин пытаются раздобыть денег. С этой целью они фотографируют задержанного мошенника в милицейской форме и выдают его за погибшего следователя, который недавно устроился на работу в отдел. Ошарашенным сотрудникам ОВД ничего не остается делать, как сдавать деньги на похороны.... Узнав об этой хулиганской выходке своих подчиненных, Зимина в наказание оставляет друзей дежурить в новогоднюю ночь. 31 декабря юная беспризорница Вера крадет телефон у подруги Антошина Насти и требует с позвонившего Дениса деньги за аппарат. Глухарев и Антошин ловят Веру, но девочка сбегает. И тут... совершенно неожиданно из Петербурга в Москву приезжают небезызвестные полковник Ухов и психолог Мельникова - сотрудники специального отдела по расследованию особо опасных дел со знаменитого "Литейного". Они тоже ищут Веру, которая стала свидетельницей одного загадочного преступления в Питере. Удастся ли им совместно с московскими коллегами найти девочку? В то же время Коле Тарасову приходится разбираться в непростой ситуации с восходящей звездой эстрады Алексом, которого обвиняют в плагиате - краже песни про Новый год. Докажет ли молодой певец Алекс свои авторские права на песню? И какие ещё невообразимые истории произойдут с нашими героями?
Качество: DVDRip (AVC)
Видео: MPEG-4 AVC, 2540 Кбит/с, 720x576@1024@576
Аудио: AC3, 6 ch, 224 Кбит/с
General
Unique ID : 176600781543898314991824708955859413080 (0x84DC12C643693B8F8043C3692B716858)
Complete name : C:Gluharj.Prihodi.Noviy.God.2009.O.DVDRip.AVC.ExKinoRay.mkv
Format : Matroska
Format version : Version 4 / Version 2
File size : 1.77 GiB
Duration : 1h 31mn
Overall bit rate : 2 765 Kbps
Movie name : Gluharj Prihodi Noviy God 2009 from ExKinoRay
Encoded date : UTC 2014-12-30 21:36:53
Writing application : mkvmerge v6.6.0 ('The Edge Of The In Between') built on Dec 1 2013 17:55:00
Writing library : libebml v1.3.0 + libmatroska v1.4.1
Video
ID : 1
Format : AVC
Format/Info : Advanced Video Codec
Format profile : High@L4.1
Format settings, CABAC : Yes
Format settings, ReFrames : 12 frames
Codec ID : V_MPEG4/ISO/AVC
Duration : 1h 31mn
Bit rate : 2 540 Kbps
Width : 720 pixels
Height : 576 pixels
Display aspect ratio : 16:9
Frame rate mode : Constant
Frame rate : 25.000 fps
Standard : PAL
Color space : YUV
Chroma subsampling : 4:2:0
Bit depth : 8 bits
Scan type : Progressive
Bits/(Pixel*Frame) : 0.245
Stream size : 1.59 GiB (90%)
Title : Enigma-Vladislav71
Writing library : x264 core 133 r2334 a3ac64b
Encoding settings : cabac=1 / ref=12 / deblock=1:-2:-2 / analyse=0x3:0x113 / me=umh / subme=11 / psy=1 / psy_rd=1.00:0.15 / mixed_ref=1 / me_range=32 / chroma_me=1 / trellis=2 / 8x8dct=1 / cqm=0 / deadzone=21,11 / fast_pskip=0 / chroma_qp_offset=-3 / threads=12 / lookahead_threads=2 / sliced_threads=0 / nr=0 / decimate=0 / interlaced=0 / bluray_compat=0 / constrained_intra=0 / bframes=8 / b_pyramid=2 / b_adapt=2 / b_bias=0 / direct=3 / weightb=1 / open_gop=0 / weightp=2 / keyint=240 / keyint_min=24 / scenecut=40 / intra_refresh=0 / rc=2pass / mbtree=0 / bitrate=2540 / ratetol=1.0 / qcomp=0.60 / qpmin=0 / qpmax=69 / qpstep=4 / cplxblur=20.0 / qblur=0.5 / ip_ratio=1.40 / pb_ratio=1.30 / aq=1:1.00
Default : Yes
Forced : No
Color primaries : BT.601 PAL
Transfer characteristics : BT.470 System B, BT.470 System G
Matrix coefficients : BT.601
Audio
ID : 2
Format : AC-3
Format/Info : Audio Coding 3
Mode extension : CM (complete main)
Format settings, Endianness : Big
Codec ID : A_AC3
Duration : 1h 31mn
Bit rate mode : Constant
Bit rate : 224 Kbps
Channel(s) : 6 channels
Channel positions : Front: L C R, Side: L R, LFE
Sampling rate : 48.0 KHz
Bit depth : 16 bits
Compression mode : Lossy
Stream size : 147 MiB (8%)
Language : Russian
Default : Yes
Forced : No



Релиз от:
Авторы релиза:



   Похожие торренты   Торрент   Размер 
В этой теме нет новых непрочитанных сообщений. Глухарь 2 [S02] + Глухарь. Приходи, Новый Год! (2009) DVDRip

89 | 92

18.07 ГБ

В этой теме нет новых непрочитанных сообщений. Глухарь [S02 + Глухарь. Приходи, Новый Год!] (2009) WEB-DLRip от Generalfilm | КПК

0 | 0

10.84 ГБ

В этой теме нет новых непрочитанных сообщений. Глухарь. Приходи, Новый год [1-2 серия из 2] (2009) SATRip

54 | 7

960.04 МБ

В этой теме нет новых непрочитанных сообщений. Глухарь 2 [01-24 из 24] (2009) DVDRip

468 | 231

11.74 ГБ

В этой теме нет новых непрочитанных сообщений. Глухарь [S03 + Глухарь. Снова Новый!] (2010) WEB-DLRip от Generalfilm | КПК

4 | 0

14.3 ГБ

В этой теме нет новых непрочитанных сообщений. Глухарь [S01] (2008) DVDRip

464 | 216

16.44 ГБ

В этой теме нет новых непрочитанных сообщений. Без сына не приходи (1986) DVDRip

3 | 2

1.33 ГБ




Вы не можете начинать темы
Вы не можете отвечать на сообщения
Вы не можете редактировать свои сообщения
Вы не можете удалять свои сообщения
Вы не можете добавлять вложения

Перейти:  
Для Мосгорсуда, Роскомнадзора и рекламодателей: mosgorsud-torrent[собачка]yandex.ru
 Вход
ppkBB3cker v.2 © 2008-2014 @ PPK
[ Time : 0.056s | 17 Queries | GZIP : Off ]

Торрент трекер RUTOR.IN, Не можете зайти на rutor.org? Какой новый адрес рутор? Какое зеркало рутор? Не работает rutor.org и зеркала? Тогда наш торрент специально для вас. Rutor.in неофициальное зеркало rutor. В случае если у Вас заблокирован rutor или вдруг Вы не можете на него зайти, то Вы без труда сможете скачать бесплатно и без рекламы последние новинки кино, игр, сериалов и прочего у нас, на Rutor.in. Не нужно использовать прокси, чтобы зайти на рутор, достаточно воспользоваться нашим ресурсом. Все новые фильмы, игры, сериалы, книги и музыка за 2013 и 2014 годы через торрент бесплатно. Скачивайте фильмы в хорошем качестве, игры для пк, xbox, playstation без регистрации. У нас вы найдете новые Зарубежные сериалы и Русские сериалы 2013, 2014, 2015 годов. Оставайтесь с нами, качайте любимые фильмы, игры, сериалы, книги и музыку.