img image001 image001 image001 image001 image001 image001 image001 image001 image001 image001 image001 image001 image001 image001 image001

Planets Sun Sun Sun
Статистика раздачи
Автор: Nickolas3434 | Размер: 1.46 ГБ | Добавлен: 02 янв 2015
Раздают: 475    Качают: 32
Скачать торрент
Скачать торрент
Описание торрента

СообщениеДобавлено: 02 янв 2015 


«Праздничное кино»

#77


Страна: Россия
Год выпуска: 2012
Производство: Enjoy Movies
Жанр: Комедия, семейный
Режиссер: Сарик Андреасян, Артем Аксененко, Дмитрий Грачев
В ролях: Елизавета Боярская, Максим Матвеев, Павел Воля, Ирина Розанова, Ален Делон, Екатерина Вилкова, Светлана Иванова, Максим Виторган, Константин Крюков, Гарик Харламов
Описание: В новой ленте зрители увидят новые истории и новые приключения новых героев, объединенных одним чувством — любовью к МАМЕ.
5 новелл. Смешные и трогательные, лиричные и комичные — каждая новелла расскажет историю мамы и ребенка, двух самых близких людей на свете. Ведь что бы ни происходило, мама всегда остается тем человеком, который будет любить всегда и несмотря ни на что…






Качество: BDRip (AVC)
Видео: MPEG-4 AVC, 2022 Кбит/с, 720х304
Аудио: АС3, 6 ch, 448 Кбит/c
Продолжительность: 01:24:20
Язык: Русский
General
Unique ID : 174266496544651944048608994051592103161 (0x831A81A36C2B469AA515ED06BF3924F9)
Complete name : C:S.Novym.Godom.mamy.2012.BDRip.AVC.ExKinoRay.mkv
Format : Matroska
Format version : Version 4 / Version 2
File size : 1.46 GiB
Duration : 1h 24mn
Overall bit rate : 2 472 Kbps
Movie name : С Новым Годом мамы 2012 from ExKinoRay
Encoded date : UTC 2014-12-23 17:09:27
Writing application : mkvmerge v6.6.0 ('The Edge Of The In Between') built on Dec 1 2013 17:55:00
Writing library : libebml v1.3.0 + libmatroska v1.4.1
Video
ID : 1
Format : AVC
Format/Info : Advanced Video Codec
Format profile : High@L4.1
Format settings, CABAC : Yes
Format settings, ReFrames : 10 frames
Codec ID : V_MPEG4/ISO/AVC
Duration : 1h 24mn
Bit rate : 2 022 Kbps
Width : 720 pixels
Height : 304 pixels
Display aspect ratio : 2.35:1
Frame rate mode : Constant
Frame rate : 24.000 fps
Color space : YUV
Chroma subsampling : 4:2:0
Bit depth : 8 bits
Scan type : Progressive
Bits/(Pixel*Frame) : 0.385
Stream size : 1.16 GiB (80%)
Title : Enigma-Vladislav71
Writing library : x264 core 130 r2273 b3065e6
Encoding settings : cabac=1 / ref=10 / deblock=1:-2:-2 / analyse=0x3:0x113 / me=umh / subme=11 / psy=1 / psy_rd=1.00:0.10 / mixed_ref=1 / me_range=32 / chroma_me=1 / trellis=2 / 8x8dct=1 / cqm=0 / deadzone=21,11 / fast_pskip=0 / chroma_qp_offset=-3 / threads=12 / lookahead_threads=2 / sliced_threads=0 / nr=0 / decimate=0 / interlaced=0 / bluray_compat=0 / constrained_intra=0 / bframes=10 / b_pyramid=2 / b_adapt=2 / b_bias=0 / direct=3 / weightb=1 / open_gop=0 / weightp=2 / keyint=240 / keyint_min=24 / scenecut=40 / intra_refresh=0 / rc=2pass / mbtree=0 / bitrate=2022 / ratetol=1.0 / qcomp=0.60 / qpmin=0 / qpmax=69 / qpstep=4 / cplxblur=20.0 / qblur=0.5 / ip_ratio=1.40 / pb_ratio=1.30 / aq=1:1.00
Default : Yes
Forced : No
Color primaries : BT.709
Transfer characteristics : BT.709
Matrix coefficients : BT.709
Audio
ID : 2
Format : AC-3
Format/Info : Audio Coding 3
Mode extension : CM (complete main)
Format settings, Endianness : Big
Codec ID : A_AC3
Duration : 1h 24mn
Bit rate mode : Constant
Bit rate : 448 Kbps
Channel(s) : 6 channels
Channel positions : Front: L C R, Side: L R, LFE
Sampling rate : 48.0 KHz
Bit depth : 16 bits
Compression mode : Lossy
Stream size : 270 MiB (18%)
Language : Russian
Default : Yes
Forced : No
Menu
00:00:00.000 : :Chapter 01
00:06:25.958 : :Chapter 02
00:10:41.708 : :Chapter 03
00:15:20.250 : :Chapter 04
00:22:55.375 : :Chapter 05
00:31:04.916 : :Chapter 06
00:38:52.000 : :Chapter 07
00:43:55.791 : :Chapter 08
00:48:07.041 : :Chapter 09
00:52:13.916 : :Chapter 10
00:59:28.875 : :Chapter 11
01:03:45.666 : :Chapter 12
01:10:33.291 : :Chapter 13
01:15:56.833 : :Chapter 14
01:20:32.750 : :Chapter 15
01:24:15.333 : :Chapter 16




Релиз от:
Авторы релиза:



   Похожие торренты   Торрент   Размер 
В этой теме нет новых непрочитанных сообщений. С новым годом, мамы! (2012) BDRip-AVC

46 | 6

746.42 МБ

В этой теме нет новых непрочитанных сообщений. С новым годом, мамы! (2012) BDRip | Лицензия

28 | 7

1.37 ГБ

В этой теме нет новых непрочитанных сообщений. С новым годом, мамы! (2012) BDRip от HELLYWOOD

19 | 4

1.45 ГБ

В этой теме нет новых непрочитанных сообщений. С новым годом, мамы! (2012) BDRip 1080p

95 | 12

4.37 ГБ

В этой теме нет новых непрочитанных сообщений. С новым годом, МАМЫ! (2012) BDRip-AVC | iPad

0 | 2

1.09 ГБ

В этой теме нет новых непрочитанных сообщений. С новым годом, мамы! (2012) BDRip от HQ-ViDEO

1276 | 26

1.46 ГБ

В этой теме нет новых непрочитанных сообщений. С новым годом, мамы! (2012) BDRip 720p от HDCLUB

10 | 9

3.25 ГБ




Вы не можете начинать темы
Вы не можете отвечать на сообщения
Вы не можете редактировать свои сообщения
Вы не можете удалять свои сообщения
Вы не можете добавлять вложения

Перейти:  
Для Мосгорсуда, Роскомнадзора и рекламодателей: mosgorsud-torrent[собачка]yandex.ru
 Вход
ppkBB3cker v.2 © 2008-2014 @ PPK
[ Time : 1.533s | 15 Queries | GZIP : Off ]

Торрент трекер RUTOR.IN, Не можете зайти на rutor.org? Какой новый адрес рутор? Какое зеркало рутор? Не работает rutor.org и зеркала? Тогда наш торрент специально для вас. Rutor.in неофициальное зеркало rutor. В случае если у Вас заблокирован rutor или вдруг Вы не можете на него зайти, то Вы без труда сможете скачать бесплатно и без рекламы последние новинки кино, игр, сериалов и прочего у нас, на Rutor.in. Не нужно использовать прокси, чтобы зайти на рутор, достаточно воспользоваться нашим ресурсом. Все новые фильмы, игры, сериалы, книги и музыка за 2013 и 2014 годы через торрент бесплатно. Скачивайте фильмы в хорошем качестве, игры для пк, xbox, playstation без регистрации. У нас вы найдете новые Зарубежные сериалы и Русские сериалы 2013, 2014, 2015 годов. Оставайтесь с нами, качайте любимые фильмы, игры, сериалы, книги и музыку.