img image001 image001 image001 image001 image001 image001 image001 image001 image001 image001 image001 image001 image001 image001 image001

Planets Sun Sun Sun
Статистика раздачи
Автор: Nickolas3434 | Размер: 3.58 ГБ | Добавлен: 02 янв 2015
Раздают: 11098    Качают: 471
Скачать торрент
Скачать торрент
Описание торрента

СообщениеДобавлено: 02 янв 2015 

Информация о фильме
Название: Дурак
Год выхода: 2014
Жанр: Драма
Режиссер: Юрий Быков
В ролях: Артем Быстров, Наталья Суркова, Юрий Цурило, Борис Невзоров, Кирилл Полухин, Роман Майоров, Иван Брэд, Александр Коршунов, Ольга Самошина, Дарья Мороз
О фильме:
Жизни 800 человек общежития висят буквально на волоске из-за безразличия местных властей. В любую секунду здание может рухнуть. И кто бы мог подумать, что судьбы людей окажутся в руках простого сантехника. Но удастся ли ему что-то изменить и предотвратить катастрофу?


Страна: Россия
Студия: Rock Film Studio
Продолжительность: 01:39:43
Перевод: Оригинал
Файл
Кодек: MPEG-4 AVC
Качество: WEB-DL 720p
Видео: MPEG-4 AVC, 3949 Кбит/с, 1280@960x536
Звук: AC3, 6 ch, 384 Кбит/с
Субтитры: Отсутствуют
Семпл

File: D:Видео 2Durak.2014.O.WEB-DL.720p.mkv
General
Unique ID : 179382079664695050318741889590735425648 (0x86F3BB5BEA5E760098890FF5EED05070)
Complete name : D:Видео 2Durak.2014.O.WEB-DL.720p.mkv
Format : Matroska
Format version : Version 4 / Version 2
File size : 3.58 GiB
Duration : 1h 56mn
Overall bit rate : 4 421 Kbps
Encoded date : UTC 2014-12-31 21:28:10
Writing application : mkvmerge v7.2.0 ('On Every Street') 64bit built on Sep 13 2014 15:52:10
Writing library : libebml v1.3.0 + libmatroska v1.4.1
DURATION : 01:56:02.080000000
NUMBER_OF_FRAMES : 217565
NUMBER_OF_BYTES : 334179840
_STATISTICS_WRITING_APP : mkvmerge v7.2.0 ('On Every Street') 64bit built on Sep 13 2014 15:52:10
_STATISTICS_WRITING_DATE_UTC : 2014-12-31 21:28:10
_STATISTICS_TAGS : BPS DURATION NUMBER_OF_FRAMES NUMBER_OF_BYTES
Video
ID : 1
Format : AVC
Format/Info : Advanced Video Codec
Format profile : Main@L3.1
Format settings, CABAC : No
Format settings, ReFrames : 2 frames
Codec ID : V_MPEG4/ISO/AVC
Duration : 1h 56mn
Bit rate : 3 949 Kbps
Width : 960 pixels
Height : 536 pixels
Display aspect ratio : 2.40:1
Frame rate mode : Constant
Frame rate : 25.000 fps
Color space : YUV
Chroma subsampling : 4:2:0
Bit depth : 8 bits
Scan type : Progressive
Bits/(Pixel*Frame) : 0.307
Stream size : 3.20 GiB (89%)
Language : English
Default : Yes
Forced : No
Color primaries : BT.709
Transfer characteristics : BT.709
Matrix coefficients : BT.709
Audio
ID : 2
Format : AC-3
Format/Info : Audio Coding 3
Mode extension : CM (complete main)
Format settings, Endianness : Big
Codec ID : A_AC3
Duration : 1h 56mn
Bit rate mode : Constant
Bit rate : 384 Kbps
Channel(s) : 6 channels
Channel positions : Front: L C R, Side: L R, LFE
Sampling rate : 48.0 KHz
Bit depth : 16 bits
Compression mode : Lossy
Stream size : 319 MiB (9%)
Language : Russian
Default : Yes
Forced : No
Menu
00:00:00.000 : en:Глава 1
00:02:53.000 : en:Глава 2
00:06:28.000 : en:Глава 3
00:13:21.000 : en:Глава 4
00:21:57.000 : en:Глава 5
00:26:05.000 : en:Глава 6
00:31:02.000 : en:Глава 7
00:36:29.000 : en:Глава 8
00:44:50.000 : en:Глава 9
00:49:34.000 : en:Глава 10
00:55:11.000 : en:Глава 11
01:05:50.000 : en:Глава 12
01:09:42.000 : en:Глава 13
01:14:16.000 : en:Глава 14
01:19:55.000 : en:Глава 15
01:25:52.000 : en:Глава 16
01:31:01.000 : en:Глава 17
01:38:35.000 : en:Глава 18
01:43:15.000 : en:Глава 19
01:48:21.000 : en:Глава 20



   Похожие торренты   Торрент   Размер 
В этой теме нет новых непрочитанных сообщений. Дурак (2014) WEB-DLRip-AVC | iTunes

844 | 30

1.42 ГБ

В этой теме нет новых непрочитанных сообщений. Дурак (2014) WEB-DLRip | iTunes

21659 | 1133

1.46 ГБ

В этой теме нет новых непрочитанных сообщений. Дурак (2014) WEB-DLRip | iTunes

3225 | 144

2.05 ГБ

В этой теме нет новых непрочитанных сообщений. Дурак (2014) BDRip-AVC от New-Team | iTunes

58 | 1

1.46 ГБ

В этой теме нет новых непрочитанных сообщений. Дурак (2014) WEB-DLRip от ELEKTRI4KA | iTunes

3678 | 277

749.04 МБ

В этой теме нет новых непрочитанных сообщений. Дурак (2014) BDRip-AVC от New-Team | iTunes

275 | 17

2.18 ГБ

В этой теме нет новых непрочитанных сообщений. Дурак (2014) WEB-DLRip от Scarabey | iTunes

4946 | 202

2.15 ГБ




Вы не можете начинать темы
Вы не можете отвечать на сообщения
Вы не можете редактировать свои сообщения
Вы не можете удалять свои сообщения
Вы не можете добавлять вложения

Перейти:  
Для Мосгорсуда, Роскомнадзора и рекламодателей: mosgorsud-torrent[собачка]yandex.ru
 Вход
ppkBB3cker v.2 © 2008-2014 @ PPK
[ Time : 0.043s | 18 Queries | GZIP : Off ]

Торрент трекер RUTOR.IN, Не можете зайти на rutor.org? Какой новый адрес рутор? Какое зеркало рутор? Не работает rutor.org и зеркала? Тогда наш торрент специально для вас. Rutor.in неофициальное зеркало rutor. В случае если у Вас заблокирован rutor или вдруг Вы не можете на него зайти, то Вы без труда сможете скачать бесплатно и без рекламы последние новинки кино, игр, сериалов и прочего у нас, на Rutor.in. Не нужно использовать прокси, чтобы зайти на рутор, достаточно воспользоваться нашим ресурсом. Все новые фильмы, игры, сериалы, книги и музыка за 2013 и 2014 годы через торрент бесплатно. Скачивайте фильмы в хорошем качестве, игры для пк, xbox, playstation без регистрации. У нас вы найдете новые Зарубежные сериалы и Русские сериалы 2013, 2014, 2015 годов. Оставайтесь с нами, качайте любимые фильмы, игры, сериалы, книги и музыку.
cron