img image001 image001 image001 image001 image001 image001 image001 image001 image001 image001 image001 image001 image001 image001 image001

Planets Sun Sun Sun
Статистика раздачи
Автор: Nickolas3434 | Размер: 1.28 ГБ | Добавлен: 02 янв 2015
Раздают: 1220    Качают: 45
Скачать торрент
Скачать торрент
Описание торрента

СообщениеДобавлено: 02 янв 2015 

Информация о фильме
Название: Любит не любит
Год выхода: 2014
Жанр: комедия
Режиссер: Клим Шипенко
В ролях: Максим Матвеев, Светлана Ходченкова, Юрий Колокольников, Любовь Аксенова, Сергей Газаров, Екатерина Васильева, Максим Виторган, Александр Ратников, Никита Панфилов, Олег Комаров
О фильме: Леша и Алена вот-вот должны пожениться. И все бы ничего, если бы не знакомство Леши с известной журналисткой Ирой накануне помолвки. Её образ никак не вписывается в рамки привычной для Алексея жизни. Ира вносит хаос в его жизнь, а Алёна — наивная девушка, любит его таким, какой он есть, и мечтает стать его женой.
Авантюризм Иры и ее готовность совершать безумные поступки дают Леше понять, что его жизнь может быть гораздо красочнее. Но готов ли он к авантюрным поступкам, когда на кону счастливое будущее с Аленой?


Выпущено: Россия / Патриот Продакшнс, Yellow, Black & White
Продолжительность: 01:23:27
Озвучивание: Оригинальное [iTunes]
Файл
Формат: MKV
Качество: WEB-DLRip (AVC)
Видео: MPEG-4 AVC, 1811 Кбит/с, 1024x430
Аудио: AC3, 6 ch, 384 Кбит/с
General
Unique ID : 213981438115039460270099287591582050452 (0xA0FB536F8D001FD488DCC68BACD22894)
Complete name : C:Lybit.ne.lybit.2014.O.WEB-DLRip.AVC.ExKinoRay.mkv
Format : Matroska
Format version : Version 4 / Version 2
File size : 1.28 GiB
Duration : 1h 23mn
Overall bit rate : 2 196 Kbps
Movie name : Lybit ne lybit 2014 from ExKinoRay
Encoded date : UTC 2015-01-01 03:40:11
Writing application : mkvmerge v6.6.0 ('The Edge Of The In Between') built on Dec 1 2013 17:55:00
Writing library : libebml v1.3.0 + libmatroska v1.4.1
Video
ID : 1
Format : AVC
Format/Info : Advanced Video Codec
Format profile : High@L4.1
Format settings, CABAC : Yes
Format settings, ReFrames : 9 frames
Codec ID : V_MPEG4/ISO/AVC
Duration : 1h 23mn
Bit rate : 1 811 Kbps
Width : 1 024 pixels
Height : 430 pixels
Display aspect ratio : 2.40:1
Frame rate mode : Constant
Frame rate : 24.000 fps
Color space : YUV
Chroma subsampling : 4:2:0
Bit depth : 8 bits
Scan type : Progressive
Bits/(Pixel*Frame) : 0.171
Stream size : 1.03 GiB (81%)
Title : Enigma-Vladislav71
Writing library : x264 core 133 r2334 a3ac64b
Encoding settings : cabac=1 / ref=9 / deblock=1:-1:-2 / analyse=0x3:0x113 / me=umh / subme=9 / psy=1 / psy_rd=1.00:0.15 / mixed_ref=1 / me_range=32 / chroma_me=1 / trellis=2 / 8x8dct=1 / cqm=0 / deadzone=21,11 / fast_pskip=0 / chroma_qp_offset=-3 / threads=12 / lookahead_threads=2 / sliced_threads=0 / nr=0 / decimate=0 / interlaced=0 / bluray_compat=0 / constrained_intra=0 / bframes=9 / b_pyramid=2 / b_adapt=2 / b_bias=0 / direct=3 / weightb=1 / open_gop=0 / weightp=2 / keyint=240 / keyint_min=24 / scenecut=40 / intra_refresh=0 / rc=2pass / mbtree=0 / bitrate=1811 / ratetol=1.0 / qcomp=0.60 / qpmin=0 / qpmax=69 / qpstep=4 / cplxblur=20.0 / qblur=0.5 / ip_ratio=1.40 / pb_ratio=1.30 / aq=1:1.00
Default : Yes
Forced : No
Color primaries : BT.709
Transfer characteristics : BT.709
Matrix coefficients : BT.709
Audio
ID : 2
Format : AC-3
Format/Info : Audio Coding 3
Mode extension : CM (complete main)
Format settings, Endianness : Big
Codec ID : A_AC3
Duration : 1h 23mn
Bit rate mode : Constant
Bit rate : 384 Kbps
Channel(s) : 6 channels
Channel positions : Front: L C R, Side: L R, LFE
Sampling rate : 48.0 KHz
Bit depth : 16 bits
Compression mode : Lossy
Stream size : 229 MiB (17%)
Language : Russian
Default : Yes
Forced : No



Релиз от:
Авторы релиза:



   Похожие торренты   Торрент   Размер 
В этой теме нет новых непрочитанных сообщений. Любит не любит (2014) WEB-DLRip от Scarabey | iTunes

4792 | 187

1.45 ГБ

В этой теме нет новых непрочитанных сообщений. Любит не любит (2014) WEB-DLRip от Scarabey | iTunes

1976 | 117

743.26 МБ

В этой теме нет новых непрочитанных сообщений. Любит не любит (2014) WEB-DLRip от ELEKTRI4KA | iTunes

3463 | 109

746.74 МБ

В этой теме нет новых непрочитанных сообщений. Любит не любит (2014) WEB-DLRip | iTunes

12782 | 692

1.37 ГБ

В этой теме нет новых непрочитанных сообщений. Любит не любит (2014) WEB-DL 720p | iTunes

7898 | 539

2.59 ГБ

В этой теме нет новых непрочитанных сообщений. Любит не любит (2014) WEB-DL 720p | iTunes

173 | 9

2.68 ГБ

В этой теме нет новых непрочитанных сообщений. Любит не любит (2014) HDTVRip 720p от MediaClub

385 | 21

2.43 ГБ




Вы не можете начинать темы
Вы не можете отвечать на сообщения
Вы не можете редактировать свои сообщения
Вы не можете удалять свои сообщения
Вы не можете добавлять вложения

Перейти:  
Для Мосгорсуда, Роскомнадзора и рекламодателей: mosgorsud-torrent[собачка]yandex.ru
 Вход
ppkBB3cker v.2 © 2008-2014 @ PPK
[ Time : 0.064s | 17 Queries | GZIP : Off ]

Торрент трекер RUTOR.IN, Не можете зайти на rutor.org? Какой новый адрес рутор? Какое зеркало рутор? Не работает rutor.org и зеркала? Тогда наш торрент специально для вас. Rutor.in неофициальное зеркало rutor. В случае если у Вас заблокирован rutor или вдруг Вы не можете на него зайти, то Вы без труда сможете скачать бесплатно и без рекламы последние новинки кино, игр, сериалов и прочего у нас, на Rutor.in. Не нужно использовать прокси, чтобы зайти на рутор, достаточно воспользоваться нашим ресурсом. Все новые фильмы, игры, сериалы, книги и музыка за 2013 и 2014 годы через торрент бесплатно. Скачивайте фильмы в хорошем качестве, игры для пк, xbox, playstation без регистрации. У нас вы найдете новые Зарубежные сериалы и Русские сериалы 2013, 2014, 2015 годов. Оставайтесь с нами, качайте любимые фильмы, игры, сериалы, книги и музыку.