img image001 image001 image001 image001 image001 image001 image001 image001 image001 image001 image001 image001 image001 image001 image001

Planets Sun Sun Sun
Статистика раздачи
Автор: Nickolas3434 | Размер: 2.48 ГБ | Добавлен: 02 янв 2015
Раздают: 1058    Качают: 44
Скачать торрент
Скачать торрент
Описание торрента

СообщениеДобавлено: 02 янв 2015 

Информация о фильме
Оригинальное название: Василиса
Год выпуска: 2014
Жанр: Исторический, мелодрама
Выпущено: Россия, Всемирные Русские Студии
Режиссер: Антон Сиверс
В ролях: Светлана Ходченкова, Дмитрий Соломыкин, Жером Кузан, Кристина Кузьмина, Игорь Черневич, Андрей Ильин, Ирина Розанова, Илья Носков, Андрей Носков, Жоанн Морио
О фильме: Он дворянин, а она — крепостная крестьянка… Им не суждено быть вместе. Возможно, так и закончилась бы эта любовная история, если бы не война. Наполеон вторгся в пределы Российской Империи, и этот день изменил привычный уклад и сословные предрассудки. Мир больше никогда не станет прежним. Война пишет новую историю любви.

Файл
Качество: WEB-DLRip (AVC)
Видео: MPEG-4 AVC, 3333 Кбит/с, 1024х576, 25 кадр/с
Аудио: AC3, 6 ch, 384 Кбит/с
Размер: 2.48 ГБ
Продолжительность: 01:35:54
Язык: Русский
Озвучивание - (iTunes Russia)
Сохранены оригинальные чаптеры как на исходном WEB-DL.
x264 [info]: frame I:1109 Avg QP:15.63 size: 97361
x264 [info]: frame P:41966 Avg QP:18.63 size: 31723
x264 [info]: frame B:100500 Avg QP:21.03 size: 9466
x264 [info]: consecutive B-frames: 4.2% 7.8% 8.6% 67.4% 6.0% 4.8% 0.5% 0.4% 0.1% 0.1%
x264 [info]: mb I I16..4: 8.7% 61.0% 30.3%
x264 [info]: mb P I16..4: 0.8% 14.7% 2.4% P16..4: 28.2% 33.2% 11.8% 5.0% 0.6% skip: 3.3%
x264 [info]: mb B I16..4: 0.1% 1.8% 0.3% B16..8: 29.3% 21.7% 4.4% direct: 6.6% skip:35.9% L0:33.9% L1:46.4% BI:19.6%
x264 [info]: 8x8 transform intra:79.5% inter:45.0%
x264 [info]: direct mvs spatial:97.8% temporal:2.2%
x264 [info]: coded y,uvDC,uvAC intra: 91.8% 87.7% 66.3% inter: 26.5% 19.0% 10.4%
x264 [info]: i16 v,h,dc,p: 24% 11% 11% 54%
x264 [info]: i8 v,h,dc,ddl,ddr,vr,hd,vl,hu: 11% 9% 7% 9% 12% 13% 13% 13% 14%
x264 [info]: i4 v,h,dc,ddl,ddr,vr,hd,vl,hu: 12% 8% 5% 8% 15% 15% 13% 11% 13%
x264 [info]: i8c dc,h,v,p: 43% 22% 18% 18%
x264 [info]: Weighted P-Frames: Y:7.5% UV:4.6%
x264 [info]: ref P L0: 58.0% 11.8% 15.6% 4.6% 3.4% 2.2% 2.0% 1.1% 1.2% 0.2% 0.0%
x264 [info]: ref B L0: 86.4% 7.7% 2.6% 1.3% 0.8% 0.6% 0.4% 0.2%
x264 [info]: ref B L1: 96.6% 3.4%
x264 [info]: kb/s:3330.03

Общее
Уникальный идентификатор : 229223331728865006499422654182618366341 (0xAC72CECF72506B99B08E159762790185)
Полное имя : D:ЗагрузкиVasilisa.2014.x264.WEB-DLRip.(AVC).ExKinoRay.mkv
Формат : Matroska
Версия формата : Version 2
Размер файла : 2,48 Гбайт
Продолжительность : 1 ч. 35 м.
Общий поток : 3716 Кбит/сек
Название фильма : Василиса.2014.Rip by: ollan
Дата кодирования : UTC 2015-01-01 15:20:05
Программа кодирования : mkvmerge v5.6.0 ('Kenya Kane') built on May 27 2012 16:44:04
Библиотека кодирования : libebml v1.2.3 + libmatroska v1.3.0
Видео
Идентификатор : 1
Формат : AVC
Формат/Информация : Advanced Video Codec
Профиль формата : High@L4.1
Параметр CABAC формата : Да
Параметр ReFrames формата : 9 кадров
Идентификатор кодека : V_MPEG4/ISO/AVC
Продолжительность : 1 ч. 35 м.
Битрейт : 3333 Кбит/сек
Ширина : 1024 пикселя
Высота : 576 пикселей
Соотношение сторон : 16:9
Режим частоты кадров : Постоянный
Частота кадров : 25,000 кадров/сек
Цветовое пространство : YUV
Субдискретизация насыщенности : 4:2:0
Битовая глубина : 8 бит
Тип развёртки : Прогрессивная
Бит/(Пиксели*Кадры) : 0.226
Размер потока : 2,18 Гбайт (88%)
Библиотека кодирования : x264 core 125 r2200 999b753
Настройки программы : cabac=1 / ref=9 / deblock=1:-2:-2 / analyse=0x3:0x133 / me=umh / subme=11 / psy=1 / psy_rd=1.00:0.10 / mixed_ref=1 / me_range=32 / chroma_me=1 / trellis=2 / 8x8dct=1 / cqm=0 / deadzone=21,11 / fast_pskip=0 / chroma_qp_offset=-3 / threads=12 / lookahead_threads=2 / sliced_threads=0 / nr=0 / decimate=0 / interlaced=0 / bluray_compat=0 / constrained_intra=0 / bframes=9 / b_pyramid=2 / b_adapt=2 / b_bias=0 / direct=3 / weightb=1 / open_gop=0 / weightp=2 / keyint=250 / keyint_min=25 / scenecut=40 / intra_refresh=0 / rc=2pass / mbtree=0 / bitrate=3333 / ratetol=1.0 / qcomp=0.60 / qpmin=0 / qpmax=69 / qpstep=4 / cplxblur=20.0 / qblur=0.5 / ip_ratio=1.40 / pb_ratio=1.30 / aq=1:1.00
Язык : Russian
Default : Да
Forced : Нет
Аудио
Идентификатор : 2
Формат : AC-3
Формат/Информация : Audio Coding 3
Расширение режима : CM (complete main)
Параметр Endianness формата : Big
Идентификатор кодека : A_AC3
Продолжительность : 1 ч. 35 м.
Вид битрейта : Постоянный
Битрейт : 384 Кбит/сек
Каналы : 6 каналов
Расположение каналов : Front: L C R, Side: L R, LFE
Частота : 48,0 КГц
Битовая глубина : 16 бит
Метод сжатия : С потерями
Размер потока : 263 Мбайт (10%)
Заголовок : iTunes Russia
Язык : Russian
Default : Да
Forced : Нет
Меню
00:00:00.000 : ru:Chapter 01
00:04:02.000 : ru:Chapter 02
00:10:02.000 : ru:Chapter 03
00:16:05.000 : ru:Chapter 04
00:21:51.000 : ru:Chapter 05
00:25:32.000 : ru:Chapter 06
00:31:03.000 : ru:Chapter 07
00:37:48.000 : ru:Chapter 08
00:42:14.000 : ru:Chapter 09
00:47:26.000 : ru:Chapter 10
00:53:08.000 : ru:Chapter 11
00:59:20.000 : ru:Chapter 12
01:12:33.000 : ru:Chapter 14
01:16:50.000 : ru:Chapter 15
01:23:44.000 : ru:Chapter 16
01:28:36.000 : ru:Chapter 17





Релиз от: Rip by:



   Похожие торренты   Торрент   Размер 
В этой теме нет новых непрочитанных сообщений. Три богатыря: Ход конем (2014) WEB-DLRip-AVC от ExKinoRay | iTunes Russia

3051 | 1217

1.24 ГБ

В этой теме нет новых непрочитанных сообщений. Племя / The Tribe (2014) WEB-DLRip-AVC от ExKinoRay | iTunes Russia

73 | 7

2.12 ГБ

В этой теме нет новых непрочитанных сообщений. Кавказская пленница! (2014) WEB-DLRip-AVC от ExKinoRay | iTunes Russia

99 | 4

743.49 МБ

В этой теме нет новых непрочитанных сообщений. Любовь напрокат (2014) WEB-DLRip-AVC от ExKinoRay | iTunes Russia

1544 | 31

1.97 ГБ

В этой теме нет новых непрочитанных сообщений. 8 новых свиданий (2014) WEB-DLRip-AVC от ExKinoRay | iTunes Russia

755 | 10

1.66 ГБ

В этой теме нет новых непрочитанных сообщений. 8 новых свиданий (2014) WEB-DLRip-AVC от ExKinoRay | iTunes Russia

91 | 5

743.7 МБ

В этой теме нет новых непрочитанных сообщений. Снежная королева 2: Перезаморозка (2014) WEB-DLRip от ExKinoRay | iTunes Russia

845 | 73

749.08 МБ




Вы не можете начинать темы
Вы не можете отвечать на сообщения
Вы не можете редактировать свои сообщения
Вы не можете удалять свои сообщения
Вы не можете добавлять вложения

Перейти:  
Для Мосгорсуда, Роскомнадзора и рекламодателей: mosgorsud-torrent[собачка]yandex.ru
 Вход
ppkBB3cker v.2 © 2008-2014 @ PPK
[ Time : 0.024s | 15 Queries | GZIP : Off ]

Торрент трекер RUTOR.IN, Не можете зайти на rutor.org? Какой новый адрес рутор? Какое зеркало рутор? Не работает rutor.org и зеркала? Тогда наш торрент специально для вас. Rutor.in неофициальное зеркало rutor. В случае если у Вас заблокирован rutor или вдруг Вы не можете на него зайти, то Вы без труда сможете скачать бесплатно и без рекламы последние новинки кино, игр, сериалов и прочего у нас, на Rutor.in. Не нужно использовать прокси, чтобы зайти на рутор, достаточно воспользоваться нашим ресурсом. Все новые фильмы, игры, сериалы, книги и музыка за 2013 и 2014 годы через торрент бесплатно. Скачивайте фильмы в хорошем качестве, игры для пк, xbox, playstation без регистрации. У нас вы найдете новые Зарубежные сериалы и Русские сериалы 2013, 2014, 2015 годов. Оставайтесь с нами, качайте любимые фильмы, игры, сериалы, книги и музыку.