img image001 image001 image001 image001 image001 image001 image001 image001 image001 image001 image001 image001 image001 image001 image001

Planets Sun Sun Sun
Статистика раздачи
Автор: Nickolas3434 | Размер: 1.46 ГБ | Добавлен: 05 янв 2015
Раздают: 14    Качают: 2
Скачать торрент
Скачать торрент
Описание торрента

СообщениеДобавлено: 05 янв 2015 

Страна: СССР
Производство: Союздетфильм
Жанр: приключения
Год выпуска: 1940
Продолжительность: 01:42:01
Перевод: Не требуется
Cубтитры: нет
Оригинальная аудиодорожка: русский
Режиссер: Сергей Юткевич
В ролях:
Максим Штраух, Леонид Любашевский, Андро Кобаладзе, Павел Кадочников, М. Марков, Владимир Владиславский, Николай Горлов, Александр Гречаный, Евгений Гуров, Константин Зубов, Николай Крючков, Иван Назаров, Николай Охлопков, Лев Потемкин, Ксения Тарасова, Ирина Федотова, Павел Шпрингфельд, Борис Тенин...
Описание:
О жизни и деятельности первого председателя ВЦИК Я. М. Свердлова (1885-1919).





Источник: DVD5 R5
Качество видео: DVDRip
Формат видео: AVI
Виде: 688x512 (4:3), 25 fps, XviD ~ 1841 kbps avg, 0.209 bit/pixel
Аудио: 48 kHz, Dolby Digital AC3 2.0, 192 kbps
Раздача от:
Общее
Полное имя : Yakov.Sverdlov.1940.DVDRip_[New-team]_by_AVP_Studio.avi
Формат : AVI
Формат/Информация : Audio Video Interleave
Размер файла : 1,46 Гбайт
Продолжительность : 1 ч. 42 м.
Общий поток : 2043 Кбит/сек
Программа кодирования : VirtualDubModRus 1.5.10.2 (build 2542/release)
Библиотека кодирования : VirtualDubMod build 2542/release
Видео
Идентификатор : 0
Формат : MPEG-4 Visual
Профиль формата : Advanced Simple@L5
Параметр BVOP формата : 1
Параметр QPel формата : Нет
Параметр GMC формата : Без точки перехода
Параметр матрицы формата : Выборочная
Идентификатор кодека : XVID
Идентификатор кодека/Подсказка : XviD
Продолжительность : 1 ч. 42 м.
Битрейт : 1841 Кбит/сек
Ширина : 688 пикселей
Высота : 512 пикселей
Соотношение сторон : 4:3
Частота кадров : 25,000 кадров/сек
Цветовое пространство : YUV
Субдискретизация насыщенности : 4:2:0
Битовая глубина : 8 бит
Тип развёртки : Прогрессивная
Метод сжатия : С потерями
Бит/(Пиксели*Кадры) : 0.209
Размер потока : 1,31 Гбайт (90%)
Библиотека кодирования : XviD 73
Аудио
Идентификатор : 1
Формат : AC-3
Формат/Информация : Audio Coding 3
Расширение режима : CM (complete main)
Параметр Endianness формата : Big
Идентификатор кодека : 2000
Продолжительность : 1 ч. 42 м.
Вид битрейта : Постоянный
Битрейт : 192 Кбит/сек
Каналы : 2 канала
Расположение каналов : Front: L R
Частота : 48,0 КГц
Битовая глубина : 16 бит
Метод сжатия : С потерями
Размер потока : 140 Мбайт (9%)
Выравнивание : Разделение по промежуткам
Продолжительность промежутка : 40 мс. (1,00 видеокадр)
Время предзагрузки промежутка : 500 мс





   Похожие торренты   Торрент   Размер 
В этой теме нет новых непрочитанных сообщений. Яков Свердлов (1940) DVDRip от New-Team

14 | 3

745.29 МБ

В этой теме нет новых непрочитанных сообщений. Яков Свердлов (1940) DVDRip-AVC от New-Team

40 | 5

1.46 ГБ

В этой теме нет новых непрочитанных сообщений. Моя любовь (1940) DVDRip от New-Team

45 | 58

1.09 ГБ

В этой теме нет новых непрочитанных сообщений. 60 дней (1940) DVDRip от New-Team

35 | 9

744.82 МБ

В этой теме нет новых непрочитанных сообщений. 60 дней (1940) DVDRip-AVC от New-Team

46 | 12

1.12 ГБ

В этой теме нет новых непрочитанных сообщений. Сибиряки (1940) DVDRip-AVC от New-Team

75 | 5

1.46 ГБ

В этой теме нет новых непрочитанных сообщений. Сибиряки (1940) DVDRip от New-Team

1 | 7

743.38 МБ




Вы не можете начинать темы
Вы не можете отвечать на сообщения
Вы не можете редактировать свои сообщения
Вы не можете удалять свои сообщения
Вы не можете добавлять вложения

Перейти:  
Для Мосгорсуда, Роскомнадзора и рекламодателей: mosgorsud-torrent[собачка]yandex.ru
 Вход
ppkBB3cker v.2 © 2008-2014 @ PPK
[ Time : 0.020s | 17 Queries | GZIP : On ]

Торрент трекер RUTOR.IN, Не можете зайти на rutor.org? Какой новый адрес рутор? Какое зеркало рутор? Не работает rutor.org и зеркала? Тогда наш торрент специально для вас. Rutor.in неофициальное зеркало rutor. В случае если у Вас заблокирован rutor или вдруг Вы не можете на него зайти, то Вы без труда сможете скачать бесплатно и без рекламы последние новинки кино, игр, сериалов и прочего у нас, на Rutor.in. Не нужно использовать прокси, чтобы зайти на рутор, достаточно воспользоваться нашим ресурсом. Все новые фильмы, игры, сериалы, книги и музыка за 2013 и 2014 годы через торрент бесплатно. Скачивайте фильмы в хорошем качестве, игры для пк, xbox, playstation без регистрации. У нас вы найдете новые Зарубежные сериалы и Русские сериалы 2013, 2014, 2015 годов. Оставайтесь с нами, качайте любимые фильмы, игры, сериалы, книги и музыку.