img image001 image001 image001 image001 image001 image001 image001 image001 image001 image001 image001 image001 image001 image001 image001

Planets Sun Sun Sun
Статистика раздачи
Автор: Nickolas3434 | Размер: 1.46 ГБ | Добавлен: 05 янв 2015
Раздают: 89    Качают: 22
Скачать торрент
Скачать торрент
Описание торрента

СообщениеДобавлено: 05 янв 2015 


Страна: Украина
Производство: киностудия "Ступени"
Жанр: Драма
Год выпуска: 2010
Продолжительность: 01:50:44
Язык: Русский
Режиссер: Борис Химичев, Алеся Бархатова, Влад Кулев, Игорь Парфёнов, Степан Пасечник, Эллен Слюсарччи, Александр Тартышников, Георгий Хостикоев, Марина Ягодкина, Эдуард Безродный
Описание: Основой этой истории о корриде стал рассказ Джека Лондона «Безумие Джона Харнеда» и редкие откровения Эрнеста Хемингуэя. Арена ревностно охраняет свои секреты. И вот впервые закулисы корриды открывают свои двери перед русским спортсменом-дзюдоистом, который волею судьбы попал в самое пекло событий, происходящих в Памплоне во время фиесты, где нечеловеческие страсти его новых знакомых матадоров, перемешав кровь и песок, жизнь и смерть, секс и любовь, уже его самого, словно русского быка, бросили на растерзание самому великому матадору всех времен — толпе.

Исходник: DVD9 R5
Тип релиза: DVDRip
Контейнер: AVI
Видео: 720x400 (1.80:1), 23.976 fps, XviD MPEG-4 ~1681 kbps avg, 0.24 bit/pixel
Аудио 1: 48 kHz, AC3 Dolby Digital, 2/0 (L,R) ch, ~192 kbps

Общее
Полное имя : D:ААА2Прощай, коррида!.avi
Формат : AVI
Формат/Информация : Audio Video Interleave
Размер файла : 1,46 Гбайт
Продолжительность : 1 ч. 50 м.
Общий поток : 1883 Кбит/сек
Программа кодирования : VirtualDubMod 1.5.10.3 | www.virtualdub-fr.org || (build 2550/release)
Библиотека кодирования : VirtualDubMod build 2550/release
Видео
Идентификатор : 0
Формат : MPEG-4 Visual
Профиль формата : Advanced Simple@L5
Параметр BVOP формата : 2
Параметр QPel формата : Нет
Параметр GMC формата : Без точки перехода
Параметр матрицы формата : Default (MPEG)
Режим смешивания : Сжатый битовый поток
Идентификатор кодека : XVID
Идентификатор кодека/Подсказка : XviD
Продолжительность : 1 ч. 50 м.
Битрейт : 1682 Кбит/сек
Ширина : 720 пикселей
Высота : 400 пикселей
Соотношение сторон : 16:9
Частота кадров : 23,976 кадра/сек
Цветовое пространство : YUV
Субдискретизация насыщенности : 4:2:0
Битовая глубина : 8 бит
Тип развёртки : Прогрессивная
Метод сжатия : С потерями
Бит/(Пиксели*Кадры) : 0.244
Размер потока : 1,30 Гбайт (89%)
Библиотека кодирования : XviD 1.2.1 (UTC 2008-12-04)
Аудио
Идентификатор : 1
Формат : AC-3
Формат/Информация : Audio Coding 3
Расширение режима : CM (complete main)
Параметр Endianness формата : Big
Идентификатор кодека : 2000
Продолжительность : 1 ч. 50 м.
Вид битрейта : Постоянный
Битрейт : 192 Кбит/сек
Каналы : 2 канала
Расположение каналов : Front: L R
Частота : 48,0 КГц
Битовая глубина : 16 бит
Метод сжатия : С потерями
Размер потока : 152 Мбайт (10%)
Выравнивание : Разделение по промежуткам
Продолжительность промежутка : 42 мс. (1,00 видеокадр)
Время предзагрузки промежутка : 500 мс.

Автор рипа:



   Похожие торренты   Торрент   Размер 
В этой теме нет новых непрочитанных сообщений. Прощай, «макаров»! [01-24 из 24] (2010) DVDRip

9 | 6

13 ГБ

В этой теме нет новых непрочитанных сообщений. Прощай, Тайпей / Yi ye Taibei (2010) DVDRip

0 | 1

695.52 МБ

В этой теме нет новых непрочитанных сообщений. Такси, прицеп и коррида / Taxi, Roulotte et Corrida (1958) DVDRip - Files-x

5 | 5

1.09 ГБ

В этой теме нет новых непрочитанных сообщений. Прощай, детка, прощай / Gone Baby Gone (2007) BDRip 720p от NNNB | P,A

114 | 8

5.75 ГБ

В этой теме нет новых непрочитанных сообщений. Прощай, детка, прощай / Gone Baby Gone (2007) BDRip от HQCLUB

32 | 5

2.18 ГБ

В этой теме нет новых непрочитанных сообщений. Прощай, детка, прощай / Gone Baby Gone (2007) BDRip 1080p

89 | 6

7.77 ГБ

В этой теме нет новых непрочитанных сообщений. Прощай, детка, прощай / Gone Baby Gone (2007) HDRip от Scarabey

70 | 7

746.73 МБ




Вы не можете начинать темы
Вы не можете отвечать на сообщения
Вы не можете редактировать свои сообщения
Вы не можете удалять свои сообщения
Вы не можете добавлять вложения

Перейти:  
Для Мосгорсуда, Роскомнадзора и рекламодателей: mosgorsud-torrent[собачка]yandex.ru
 Вход
ppkBB3cker v.2 © 2008-2014 @ PPK
[ Time : 0.019s | 14 Queries | GZIP : On ]

Торрент трекер RUTOR.IN, Не можете зайти на rutor.org? Какой новый адрес рутор? Какое зеркало рутор? Не работает rutor.org и зеркала? Тогда наш торрент специально для вас. Rutor.in неофициальное зеркало rutor. В случае если у Вас заблокирован rutor или вдруг Вы не можете на него зайти, то Вы без труда сможете скачать бесплатно и без рекламы последние новинки кино, игр, сериалов и прочего у нас, на Rutor.in. Не нужно использовать прокси, чтобы зайти на рутор, достаточно воспользоваться нашим ресурсом. Все новые фильмы, игры, сериалы, книги и музыка за 2013 и 2014 годы через торрент бесплатно. Скачивайте фильмы в хорошем качестве, игры для пк, xbox, playstation без регистрации. У нас вы найдете новые Зарубежные сериалы и Русские сериалы 2013, 2014, 2015 годов. Оставайтесь с нами, качайте любимые фильмы, игры, сериалы, книги и музыку.