img image001 image001 image001 image001 image001 image001 image001 image001 image001 image001 image001 image001 image001 image001 image001

Planets Sun Sun Sun
Статистика раздачи
Автор: Nickolas3434 | Размер: 744.25 МБ | Добавлен: 07 янв 2015
Раздают: 26    Качают: 5
Скачать торрент
Скачать торрент
Описание торрента

СообщениеДобавлено: 07 янв 2015 

Страна: СССР
Производство: Союздетфильм
Жанр: биография, история
Год выпуска: 1940
Продолжительность: 01:11:02
Перевод: Не требуется
Cубтитры: нет
Оригинальная аудиодорожка: русский
Режиссер: Яков Протазанов
В ролях:
Арслан Муборяков, Михаил Болдуман, Сергей Блинников, Николай Крючков, Нина Никитина, Ирина Федотова, Лев Потемкин, Андрей Файт, Георгий Милляр, Абдулламин Зубаиров...
Описание:
О башкирском национальном герое, поэте-импровизаторе Салавате Юлаеве. В октябре 1773 он был мобилизован на борьбу с Пугачевым, но вместе со своим отрядом перешел на сторону восставших, которые вели осаду Оренбурга.
Пугачев дал Салавату Юлаеву чин полковника. После поражения восстания и ареста Пугачева продолжил борьбу, 24 ноября 1774 у деревни Медяш был взит в плен. Произведения Салавата Юлаева передавались сэсэнами из уст в уста.





Источник: DVD5 R5
Качество видео: DVDRip
Формат видео: AVI
Виде: 688x512 (4:3), 25 fps, XviD ~ 1327 kbps avg, 0.151 bit/pixel
Аудио: 48 kHz, Dolby Digital AC3 1.0, 128 kbps
Раздача от:
Общее
Полное имя : Salavat.Yulaev.1940.DVDRip_[New-team]_by_AVP_Studio.avi
Формат : AVI
Формат/Информация : Audio Video Interleave
Размер файла : 744 Мбайт
Продолжительность : 1 ч. 11 м.
Общий поток : 1465 Кбит/сек
Программа кодирования : VirtualDubModRus 1.5.10.2 (build 2542/release)
Библиотека кодирования : VirtualDubMod build 2542/release
Видео
Идентификатор : 0
Формат : MPEG-4 Visual
Профиль формата : Advanced Simple@L5
Параметр BVOP формата : 1
Параметр QPel формата : Нет
Параметр GMC формата : Без точки перехода
Параметр матрицы формата : Выборочная
Идентификатор кодека : XVID
Идентификатор кодека/Подсказка : XviD
Продолжительность : 1 ч. 11 м.
Битрейт : 1327 Кбит/сек
Ширина : 688 пикселей
Высота : 512 пикселей
Соотношение сторон : 4:3
Частота кадров : 25,000 кадров/сек
Цветовое пространство : YUV
Субдискретизация насыщенности : 4:2:0
Битовая глубина : 8 бит
Тип развёртки : Прогрессивная
Метод сжатия : С потерями
Бит/(Пиксели*Кадры) : 0.151
Размер потока : 674 Мбайт (91%)
Библиотека кодирования : XviD 73
Аудио
Идентификатор : 1
Формат : AC-3
Формат/Информация : Audio Coding 3
Расширение режима : CM (complete main)
Параметр Endianness формата : Big
Идентификатор кодека : 2000
Продолжительность : 1 ч. 11 м.
Вид битрейта : Постоянный
Битрейт : 128 Кбит/сек
Каналы : 1 канал
Расположение каналов : Front: C
Частота : 48,0 КГц
Битовая глубина : 16 бит
Метод сжатия : С потерями
Размер потока : 65,0 Мбайт (9%)
Выравнивание : Разделение по промежуткам
Продолжительность промежутка : 40 мс. (1,00 видеокадр)
Время предзагрузки промежутка : 500 мс





   Похожие торренты   Торрент   Размер 
В этой теме нет новых непрочитанных сообщений. Салават Юлаев (1940) DVDRip-AVC от New-Team

28 | 7

744.24 МБ

В этой теме нет новых непрочитанных сообщений. Салават Юлаев (1940) DVDRip от Files-x

18 | 10

1.21 ГБ

В этой теме нет новых непрочитанных сообщений. Салават Юлаев (1940) DVD5

3 | 3

3.17 ГБ

В этой теме нет новых непрочитанных сообщений. Хоккей. КХЛ 16/17. РЧ: Салават Юлаев - Динамо Р [06.09] (2016) IPTV 1080i

0 | 0

7.04 ГБ

В этой теме нет новых непрочитанных сообщений. Хоккей. КХЛ 16/17. РЧ: Салават Юлаев - Динамо Мн [10.09] (2016) IPTV 1080i

0 | 0

6.61 ГБ

В этой теме нет новых непрочитанных сообщений. Хоккей. КХЛ 2012-13. РЧ. Салават Юлаев (Уфа) - Ак Барс (Казань) [01.02] (2013) IPTVRip

0 | 3

903.58 МБ

В этой теме нет новых непрочитанных сообщений. Хоккей. КХЛ 2012-13. Кубок Гагарина. 1/8 финала. Матч №4. Салават Юлаев - Металлург [26.02] (2013) IPTVRip

0 | 2

1.56 ГБ




Вы не можете начинать темы
Вы не можете отвечать на сообщения
Вы не можете редактировать свои сообщения
Вы не можете удалять свои сообщения
Вы не можете добавлять вложения

Перейти:  
Для Мосгорсуда, Роскомнадзора и рекламодателей: mosgorsud-torrent[собачка]yandex.ru
 Вход
ppkBB3cker v.2 © 2008-2014 @ PPK
[ Time : 0.051s | 16 Queries | GZIP : Off ]

cron