img image001 image001 image001 image001 image001 image001 image001 image001 image001 image001 image001 image001 image001 image001 image001

Planets Sun Sun Sun
Статистика раздачи
Автор: Nickolas3434 | Размер: 1.37 ГБ | Добавлен: 07 янв 2015
Раздают: 35    Качают: 4
Скачать торрент
Скачать торрент
Описание торрента

СообщениеДобавлено: 07 янв 2015 

Информация о фильме
Название: Венок сонетов
Год выхода: 1976
Жанр: военный, драма, экранизация
Режиссер: Валерий Рубинчик
В ролях: Игорь Меркулов, Саша Жуковский, Ирина Зеленко, Владимир Юрьев, Эммануил Геллер, Георгий Штиль, Валентин Никулин, Пётр Юрченков, Виктор Ильичёв, Люда Куцелай, Александр Харитонов, Евгений Шабан, Вадим Ганшин, Леонид Кмит, Борис Гитин, Повилас Саударгас, Людмила Аринина, Света Крезо, Саша Катько, Анна Дубровина, Ольга Лысенко, Любовь Румянцева
О фильме:
По мотивам повести Виктора Муратова "Мы убегали на фронт".
В самом конце войны двое ребят сбегают из училища и пробираются на фронт. В вокзальной сутолоке беглецы теряют друг друга — и вскоре одному из них предстоит принять свой первый бой.
Страна: ССССР
Студия: Беларусьфильм
Продолжительность: 01:24:30
Файл
Качество: SATRip
Формат: AVI
Видео: XviD, 720x312 (2.35:1), ~2080 kbps, 25 fps
Звук: MP3, 224 kbps, 2 channels, 48 kHz
Семпл

General
Complete name : D:InstallDropboxVenok_sonetov.avi
Format : AVI
Format/Info : Audio Video Interleave
File size : 1.37 GiB
Duration : 1h 24mn
Overall bit rate : 2 314 Kbps
Writing application : VirtualDubMod 1.5.10.2 (build 2540/release)
Writing library : VirtualDubMod build 2540/release
Video
ID : 0
Format : MPEG-4 Visual
Format profile : Advanced Simple@L5
Format settings, BVOP : 1
Format settings, QPel : No
Format settings, GMC : No warppoints
Format settings, Matrix : Default (MPEG)
Codec ID : XVID
Codec ID/Hint : XviD
Duration : 1h 24mn
Bit rate : 2 080 Kbps
Width : 720 pixels
Height : 312 pixels
Display aspect ratio : 2.35:1
Frame rate : 25.000 fps
Color space : YUV
Chroma subsampling : 4:2:0
Bit depth : 8 bits
Scan type : Progressive
Compression mode : Lossy
Bits/(Pixel*Frame) : 0.370
Stream size : 1.23 GiB (90%)
Writing library : XviD 1.2.1 (UTC 2008-12-04)
Audio
ID : 1
Format : MPEG Audio
Format version : Version 1
Format profile : Layer 3
Mode : Joint stereo
Codec ID : 55
Codec ID/Hint : MP3
Duration : 1h 24mn
Bit rate mode : Constant
Bit rate : 224 Kbps
Channel(s) : 2 channels
Sampling rate : 48.0 KHz
Compression mode : Lossy
Stream size : 135 MiB (10%)
Alignment : Aligned on interleaves
Interleave, duration : 40 ms (1.00 video frame)
Interleave, preload duration : 504 ms



   Похожие торренты   Торрент   Размер 
В этой теме нет новых непрочитанных сообщений. Янукович и венок (2010) TVRip

0 | 8

4.8 МБ

В этой теме нет новых непрочитанных сообщений. Венок из ромашек / The Daisy Chain (2008) HDRip от Generalfilm

22 | 9

1.54 ГБ

В этой теме нет новых непрочитанных сообщений. Венок Валентине. Вечер памяти Валентины Толкуновой (2011) DVB от AND03AND

3 | 0

1.12 ГБ

В этой теме нет новых непрочитанных сообщений. Венок Романсов 3: Лебединая соната / Dark Romance 3: The Swan Sonata CE (2015) PC

2518 | 120

1018.75 МБ

В этой теме нет новых непрочитанных сообщений. Покорители гор (1977) SATRip

131 | 3

250.6 МБ

В этой теме нет новых непрочитанных сообщений. Приезжая (1977) SATRip

365 | 31

1.46 ГБ

В этой теме нет новых непрочитанных сообщений. Доброта (1977) SATRip

408 | 12

1.07 ГБ




Вы не можете начинать темы
Вы не можете отвечать на сообщения
Вы не можете редактировать свои сообщения
Вы не можете удалять свои сообщения
Вы не можете добавлять вложения

Перейти:  
Для Мосгорсуда, Роскомнадзора и рекламодателей: mosgorsud-torrent[собачка]yandex.ru
 Вход
ppkBB3cker v.2 © 2008-2014 @ PPK
[ Time : 0.043s | 16 Queries | GZIP : Off ]

Торрент трекер RUTOR.IN, Не можете зайти на rutor.org? Какой новый адрес рутор? Какое зеркало рутор? Не работает rutor.org и зеркала? Тогда наш торрент специально для вас. Rutor.in неофициальное зеркало rutor. В случае если у Вас заблокирован rutor или вдруг Вы не можете на него зайти, то Вы без труда сможете скачать бесплатно и без рекламы последние новинки кино, игр, сериалов и прочего у нас, на Rutor.in. Не нужно использовать прокси, чтобы зайти на рутор, достаточно воспользоваться нашим ресурсом. Все новые фильмы, игры, сериалы, книги и музыка за 2013 и 2014 годы через торрент бесплатно. Скачивайте фильмы в хорошем качестве, игры для пк, xbox, playstation без регистрации. У нас вы найдете новые Зарубежные сериалы и Русские сериалы 2013, 2014, 2015 годов. Оставайтесь с нами, качайте любимые фильмы, игры, сериалы, книги и музыку.
cron