img image001 image001 image001 image001 image001 image001 image001 image001 image001 image001 image001 image001 image001 image001 image001

Planets Sun Sun Sun
Статистика раздачи
Автор: Nickolas3434 | Размер: 746.72 МБ | Добавлен: 07 янв 2015
Раздают: 20    Качают: 4
Скачать торрент
Скачать торрент
Описание торрента

СообщениеДобавлено: 07 янв 2015 

Страна: СССР
Производство: Киевская киностудия
Жанр: биография, история
Год выпуска: 1940
Продолжительность: 01:24:24
Перевод: Не требуется
Cубтитры: нет
Оригинальная аудиодорожка: русский
Режиссер: Абрам Роом
В ролях:
Амвросий Бучма, Татьяна Кондракова, Валентина Бжеская, Ю. Островой, Борис Авшаров, Ольга Жизнева, Ростислав Плятт, Сергей Мартинсон; актёры украинских и польских театров Западных областей Украины: Е. Курило (роль озвучена Марком Бернесом), Стефа Стадникивна, Орест Слипенький, Пётр Сорока, Л. Сердюкова, Осип Стадник, В. Рачка...
Интересно, что в титрах «актёры украинских и польских театров Западных областей Украины» выделены из списка остальных исполнителей — вполне очевидно, в чисто пропагандистских целях. У некоторых из них, надо полагать, были столь серьёзные проблемы с русской речью, что озвучивать их пришлось другим, профессиональным артистам. Так, роль Андрея (Е. Курило) озвучил Марк Бернес, приблизительно в то время снимавшийся на Киевской студии у Леонида Лукова в «Большой жизни».
Описание:
Конец тридцатых годов. В западноукраинском селе Лентовня властвует помещица графиня Пшежинская. Она отнимает последний клочок земли у бедняка Хомы Габрыся, потому что через его участок проходит новая дорога к ее замку. Возмущенный Хома Габрысь в знак протеста уносит со своего поля два мешка земли. Его штрафуют и герой попадает в еще большую кабалу к графине. Тем временем в Лентовню приезжает молодая учительница Ганна. Она наблюдает за несправедливостью панов по отношению к крестьянам. Ее религиозные иллюзии быстро рассеиваются, и вскоре учительница начинает сочувствовать и помогать большевикам…





Источник: DVD5 R5
Качество видео: DVDRip
Формат видео: AVI
Виде: 640x480 (4:3), 25 fps, XviD ~ 1101 kbps avg, 0.143 bit/pixel
Аудио: 48 kHz, MP3 2.0, 128 kbps
Раздача от:
Общее
Полное имя : Veter.s.vostoka.1940.DVDRip-745_[New-team]_by_AVP_Studio.avi
Формат : AVI
Формат/Информация : Audio Video Interleave
Размер файла : 747 Мбайт
Продолжительность : 1 ч. 24 м.
Общий поток : 1238 Кбит/сек
Программа кодирования : VirtualDubModRus 1.5.10.2 (build 2542/release)
Библиотека кодирования : VirtualDubMod build 2542/release
Видео
Идентификатор : 0
Формат : MPEG-4 Visual
Профиль формата : Advanced Simple@L5
Параметр BVOP формата : 1
Параметр QPel формата : Нет
Параметр GMC формата : Без точки перехода
Параметр матрицы формата : Выборочная
Идентификатор кодека : XVID
Идентификатор кодека/Подсказка : XviD
Продолжительность : 1 ч. 24 м.
Битрейт : 1101 Кбит/сек
Ширина : 640 пикселей
Высота : 480 пикселей
Соотношение сторон : 4:3
Частота кадров : 25,000 кадров/сек
Цветовое пространство : YUV
Субдискретизация насыщенности : 4:2:0
Битовая глубина : 8 бит
Тип развёртки : Прогрессивная
Метод сжатия : С потерями
Бит/(Пиксели*Кадры) : 0.143
Размер потока : 664 Мбайт (89%)
Библиотека кодирования : XviD 73
Аудио
Идентификатор : 1
Формат : MPEG Audio
Версия формата : Version 1
Профиль формата : Layer 3
Идентификатор кодека : 55
Идентификатор кодека/Подсказка : MP3
Продолжительность : 1 ч. 24 м.
Вид битрейта : Постоянный
Битрейт : 128 Кбит/сек
Каналы : 2 канала
Частота : 48,0 КГц
Метод сжатия : С потерями
Размер потока : 77,2 Мбайт (10%)
Выравнивание : Соединение по промежуткам
Продолжительность промежутка : 40 мс. (1,00 видеокадр)
Время предзагрузки промежутка : 504 мс





   Похожие торренты   Торрент   Размер 
В этой теме нет новых непрочитанных сообщений. Ветер с востока (1940) DVDRip-AVC от New-Team

62 | 13

1.46 ГБ

В этой теме нет новых непрочитанных сообщений. Ветер с востока (1940) DVDRip от New-Team

26 | 5

1.46 ГБ

В этой теме нет новых непрочитанных сообщений. Ветер с востока / Vent d'est (1993) DVDRip

6 | 1

700 МБ

В этой теме нет новых непрочитанных сообщений. Ветер с востока / Vent d'est (1992) DVDRip от Киномагия | Р

20 | 1

1.45 ГБ

В этой теме нет новых непрочитанных сообщений. Моя любовь (1940) DVDRip-AVC от New-Team

87 | 7

1.09 ГБ

В этой теме нет новых непрочитанных сообщений. Моя любовь (1940) DVDRip от New-Team

19 | 3

745.32 МБ

В этой теме нет новых непрочитанных сообщений. Моя любовь (1940) DVDRip от New-Team

45 | 58

1.09 ГБ




Вы не можете начинать темы
Вы не можете отвечать на сообщения
Вы не можете редактировать свои сообщения
Вы не можете удалять свои сообщения
Вы не можете добавлять вложения

Перейти:  
Для Мосгорсуда, Роскомнадзора и рекламодателей: mosgorsud-torrent[собачка]yandex.ru
 Вход
ppkBB3cker v.2 © 2008-2014 @ PPK
[ Time : 0.052s | 16 Queries | GZIP : Off ]

Торрент трекер RUTOR.IN, Не можете зайти на rutor.org? Какой новый адрес рутор? Какое зеркало рутор? Не работает rutor.org и зеркала? Тогда наш торрент специально для вас. Rutor.in неофициальное зеркало rutor. В случае если у Вас заблокирован rutor или вдруг Вы не можете на него зайти, то Вы без труда сможете скачать бесплатно и без рекламы последние новинки кино, игр, сериалов и прочего у нас, на Rutor.in. Не нужно использовать прокси, чтобы зайти на рутор, достаточно воспользоваться нашим ресурсом. Все новые фильмы, игры, сериалы, книги и музыка за 2013 и 2014 годы через торрент бесплатно. Скачивайте фильмы в хорошем качестве, игры для пк, xbox, playstation без регистрации. У нас вы найдете новые Зарубежные сериалы и Русские сериалы 2013, 2014, 2015 годов. Оставайтесь с нами, качайте любимые фильмы, игры, сериалы, книги и музыку.
cron