img image001 image001 image001 image001 image001 image001 image001 image001 image001 image001 image001 image001 image001 image001 image001

Planets Sun Sun Sun
Статистика раздачи
Автор: Nickolas3434 | Размер: 745.16 МБ | Добавлен: 07 янв 2015
Раздают: 297    Качают: 18
Скачать торрент
Скачать торрент
Описание торрента

СообщениеДобавлено: 07 янв 2015 

Информация о фильме
Название: Лермонтов
Год выхода: 2014
Жанр: Драма, биография, документальный
Режиссёр: Максим Беспалый
В ролях: Владимир Аблогин, Анна Леванова, Илья Ловкий, Семён Сердин, Василий Цыганцов, Александр Лимин, Павел Рассомахин, Сесиль Свердлова, Людмила Гамуряк, Данила Колбасеев
О фильме:
200 лет назад родился русский поэт Михаил Лермонтов. Юноша с огромными глазами: его портрет известен каждому со времён школы. Лермонтов писал стихи, воевал, влюблялся и был убит на дуэли. Короткая жизнь в 27 лет. Но что мы знаем о настоящем Лермонтове? Биографический документально-игровой фильм подробно рассказывает о жизни незаурядного человека и великого поэта.

Страна: Россия
Студия: Star Media
Продолжительность: 01:29:50
Перевод: Не требуется
Файл
Кодек: XviD
Качество: HDTVRip [Исходник: HDTV (1080i)]
Видео: XviD, 656x368 (16:9), 1022 Кбит/с, 25 кадр/с
Звук: Русский, MP3, 48000 Гц, 128 Кбит/с, 2 канала (Стерео)
Субтитры: Нет

General
Complete name : Lermontov.2014.HDTVRip.745MB.avi
Format : AVI
Format/Info : Audio Video Interleave
File size : 745 MiB
Duration : 1h 29mn
Overall bit rate : 1 160 Kbps
Writing application : VirtualDubMod 1.5.10.3 (build 2550/release)
Writing library : VirtualDubMod build 2550/release
Copyright : rip by ivanduskoj
Video
ID : 0
Format : MPEG-4 Visual
Format profile : Advanced Simple@L5
Format settings, BVOP : 2
Format settings, QPel : No
Format settings, GMC : No warppoints
Format settings, Matrix : Custom
Codec ID : XVID
Codec ID/Hint : XviD
Duration : 1h 29mn
Bit rate : 1 022 Kbps
Width : 656 pixels
Height : 368 pixels
Display aspect ratio : 16:9
Frame rate : 25.000 fps
Color space : YUV
Chroma subsampling : 4:2:0
Bit depth : 8 bits
Scan type : Progressive
Compression mode : Lossy
Bits/(Pixel*Frame) : 0.169
Stream size : 657 MiB (88%)
Writing library : XviD 73
Audio
ID : 1
Format : MPEG Audio
Format version : Version 1
Format profile : Layer 3
Codec ID : 55
Codec ID/Hint : MP3
Duration : 1h 29mn
Bit rate mode : Constant
Bit rate : 128 Kbps
Channel(s) : 2 channels
Sampling rate : 48.0 KHz
Compression mode : Lossy
Stream size : 82.2 MiB (11%)
Alignment : Aligned on interleaves
Interleave, duration : 40 ms (1.00 video frame)
Interleave, preload duration : 504 ms
Writing library : LAME3.99r
Encoding settings : -m s -V 4 -q 0 -lowpass 17 -b 128

Автор рипа - ivandubskoj



   Похожие торренты   Торрент   Размер 
В этой теме нет новых непрочитанных сообщений. Лермонтов (2014) HDTVRip от ivandubskoj

1403 | 38

1.46 ГБ

В этой теме нет новых непрочитанных сообщений. Лермонтов [01-02 из 02] (2014) WEB-DL 1080p от MediaClub

116 | 71

3.2 ГБ

В этой теме нет новых непрочитанных сообщений. Лермонтов (2014) WEB-DL 1080p от MediaClub

731 | 21

1.7 ГБ

В этой теме нет новых непрочитанных сообщений. Лермонтов (2014) WEBRip 720p от Files-х

26 | 2

885.72 МБ

В этой теме нет новых непрочитанных сообщений. Михаил Лермонтов.Таинственная повесть [01-04 из 04] (2014) SATRip от Generalfilm

9 | 0

1.37 ГБ

В этой теме нет новых непрочитанных сообщений. Берцы (2014) HDTVRip от ivandubskoj

174 | 12

745.44 МБ

В этой теме нет новых непрочитанных сообщений. Москва - Лопушки (2014) HDTVRip от ivandubskoj

781 | 36

1.46 ГБ




Вы не можете начинать темы
Вы не можете отвечать на сообщения
Вы не можете редактировать свои сообщения
Вы не можете удалять свои сообщения
Вы не можете добавлять вложения

Перейти:  
Для Мосгорсуда, Роскомнадзора и рекламодателей: mosgorsud-torrent[собачка]yandex.ru
 Вход
ppkBB3cker v.2 © 2008-2014 @ PPK
[ Time : 0.649s | 16 Queries | GZIP : Off ]

cron