img image001 image001 image001 image001 image001 image001 image001 image001 image001 image001 image001 image001 image001 image001 image001

Planets Sun Sun Sun
Статистика раздачи
Автор: Nickolas3434 | Размер: 745.88 МБ | Добавлен: 08 янв 2015
Раздают: 57    Качают: 12
Скачать торрент
Скачать торрент
Описание торрента

СообщениеДобавлено: 08 янв 2015 

Страна: СССР
Производство: Союздетфильм
Жанр: мелодрама
Год выпуска: 1940
Продолжительность: 01:25:19
Перевод: Не требуется
Cубтитры: нет
Оригинальная аудиодорожка: русский
Режиссер: Владимир Юренев
В ролях:
Валентина Серова, Сергей Днепров, Михаил Астангов, Петр Савин, Наталия Садовская, Александр Зражевский, Надежда Кручинина, Борис Толмазов, Игорь Бут, Ирина Федотова...
Описание:
Воспитанница детского дома Надя Кулагина после окончания института приезжает работать в школу, где когда-то училась. После ее появления самый безнадежный ученик Димка Лопатин, которого даже хотели выгнать из школы, становится одним из лучших учеников и верным другом нового классного руководителя…





Источник: DVB
Качество видео: SATRip
Формат видео: AVI
Виде: 640x480 (4:3), 25 fps, XviD ~ 1085 kbps avg, 0.141 bit/pixel
Аудио: 48 kHz, MP3 2.0, 128 kbps
Раздача от:
Общее
Полное имя : Vesenniy.potok.1940.SATRip-745_[New-team]_by_AVP_Studio.avi
Формат : AVI
Формат/Информация : Audio Video Interleave
Размер файла : 746 Мбайт
Продолжительность : 1 ч. 25 м.
Общий поток : 1222 Кбит/сек
Программа кодирования : VirtualDubModRus 1.5.10.2 (build 2542/release)
Библиотека кодирования : VirtualDubMod build 2542/release
Видео
Идентификатор : 0
Формат : MPEG-4 Visual
Профиль формата : Advanced Simple@L5
Параметр BVOP формата : 1
Параметр QPel формата : Нет
Параметр GMC формата : Без точки перехода
Параметр матрицы формата : Выборочная
Идентификатор кодека : XVID
Идентификатор кодека/Подсказка : XviD
Продолжительность : 1 ч. 25 м.
Битрейт : 1085 Кбит/сек
Ширина : 640 пикселей
Высота : 480 пикселей
Соотношение сторон : 4:3
Частота кадров : 25,000 кадров/сек
Цветовое пространство : YUV
Субдискретизация насыщенности : 4:2:0
Битовая глубина : 8 бит
Тип развёртки : Прогрессивная
Метод сжатия : С потерями
Бит/(Пиксели*Кадры) : 0.141
Размер потока : 662 Мбайт (89%)
Библиотека кодирования : XviD 73
Аудио
Идентификатор : 1
Формат : MPEG Audio
Версия формата : Version 1
Профиль формата : Layer 3
Идентификатор кодека : 55
Идентификатор кодека/Подсказка : MP3
Продолжительность : 1 ч. 25 м.
Вид битрейта : Постоянный
Битрейт : 128 Кбит/сек
Каналы : 2 канала
Частота : 48,0 КГц
Метод сжатия : С потерями
Размер потока : 78,1 Мбайт (10%)
Выравнивание : Соединение по промежуткам
Продолжительность промежутка : 40 мс. (1,00 видеокадр)
Время предзагрузки промежутка : 504 мс.
Библиотека кодирования : LAME3.99r
Настройки программы : -m s -V 4 -q 2 -lowpass 17 -b 128





   Похожие торренты   Торрент   Размер 
В этой теме нет новых непрочитанных сообщений. Весенний поток (1940) SATRip от New-Team

16 | 6

1.09 ГБ

В этой теме нет новых непрочитанных сообщений. Весенний поток (1940) SATRip-AVC от New-Team

24 | 4

1.09 ГБ

В этой теме нет новых непрочитанных сообщений. Бабы (1940) SATRip от New-Team

11 | 6

1.46 ГБ

В этой теме нет новых непрочитанных сообщений. Бабы (1940) SATRip от New-Team

12 | 5

745.31 МБ

В этой теме нет новых непрочитанных сообщений. Будни (1940) SATRip от New-Team

9 | 4

744.94 МБ

В этой теме нет новых непрочитанных сообщений. Бабы (1940) SATRip-AVC от New-Team

59 | 16

1.46 ГБ

В этой теме нет новых непрочитанных сообщений. Возвращение (1940) SATRip-AVC от New-Team

12 | 8

1.09 ГБ




Вы не можете начинать темы
Вы не можете отвечать на сообщения
Вы не можете редактировать свои сообщения
Вы не можете удалять свои сообщения
Вы не можете добавлять вложения

Перейти:  
Для Мосгорсуда, Роскомнадзора и рекламодателей: mosgorsud-torrent[собачка]yandex.ru
 Вход
ppkBB3cker v.2 © 2008-2014 @ PPK
[ Time : 0.048s | 15 Queries | GZIP : On ]

Торрент трекер RUTOR.IN, Не можете зайти на rutor.org? Какой новый адрес рутор? Какое зеркало рутор? Не работает rutor.org и зеркала? Тогда наш торрент специально для вас. Rutor.in неофициальное зеркало rutor. В случае если у Вас заблокирован rutor или вдруг Вы не можете на него зайти, то Вы без труда сможете скачать бесплатно и без рекламы последние новинки кино, игр, сериалов и прочего у нас, на Rutor.in. Не нужно использовать прокси, чтобы зайти на рутор, достаточно воспользоваться нашим ресурсом. Все новые фильмы, игры, сериалы, книги и музыка за 2013 и 2014 годы через торрент бесплатно. Скачивайте фильмы в хорошем качестве, игры для пк, xbox, playstation без регистрации. У нас вы найдете новые Зарубежные сериалы и Русские сериалы 2013, 2014, 2015 годов. Оставайтесь с нами, качайте любимые фильмы, игры, сериалы, книги и музыку.