img image001 image001 image001 image001 image001 image001 image001 image001 image001 image001 image001 image001 image001 image001 image001

Planets Sun Sun Sun
Статистика раздачи
Автор: Nickolas3434 | Размер: 1.22 ГБ | Добавлен: 09 янв 2015
Раздают: 1319    Качают: 19
Скачать торрент
Скачать торрент
Описание торрента

СообщениеДобавлено: 09 янв 2015 




Информация о фильме
Название: Вычислитель
Год выхода: 2014
Жанр: Фантастика
Режиссер: Дмитрий Грачев
Продюсер: Алексей Куренков, Дмитрий Медников, Фёдор Бондарчук
В ролях: Евгений Миронов, Винни Джонс, Анна Чиповская, Иван Верховых, Владас Багдона, Алексей Колубков, Никита Панфилов, Линда Нигматулина, Пётр Сковцов, Ирене Мускара
О фильме:
Десять заключенных, приговоренных к пожизненному изгнанию с планеты XT-59, отправляются в опасный путь через Саргассово Болото. Группа сразу делится на две части: Эрвин и Кристи идут на поиск Счастливых Островов, Юст ведет остальных к Гнилой Мели. Однако долгое время их маршруты практически совпадают. В первый же вечер Эрвин понимает, что его должны убить — в прошлой жизни он занимал слишком высокий пост, и теперь он опасен для тех, кто пришел к власти. Выбрав в попутчицы Кристи, он сразу старается уйти подальше от остальных членов группы, чтобы обезопасить себя. На пути к Счастливым островам герои преодолевают массу препятствий. Цена этому — свобода и счастье.

Страна: Россия
Студия: Art Pictures Studio, ВГТРК
Продолжительность: 1:19:41
Перевод: Оригинал
Файл
Качество: WEBRip-AVC
Видео: High@L4.1, 1800 kb/s, 1020x424
Звук: AC3 2.0, 384 Kb/s
Субтитры: Отсутствуют

General
Unique ID : 169958189063667512379050482221366064307 (0x7FDCC1ADFDE7C82FACAF3612FC0B34B3)
Complete name : F:Вычислитель.(2014).WEBRip-AVC.[-=DoMiNo=-].mkv
Format : Matroska
Format version : Version 4 / Version 2
File size : 1.22 GiB
Duration : 1h 19mn
Overall bit rate : 2 187 Kbps
Writing application : XviD4PSP 7.0 / 55.48.100
Writing library : XviD4PSP 7.0 / 55.48.100
DATE : -1
Video
ID : 1
Format : AVC
Format/Info : Advanced Video Codec
Format profile : High@L4.1
Format settings, CABAC : Yes
Format settings, ReFrames : 12 frames
Codec ID : V_MPEG4/ISO/AVC
Duration : 1h 19mn
Bit rate : 1 800 Kbps
Width : 1 020 pixels
Height : 424 pixels
Display aspect ratio : 2.40:1
Frame rate mode : Constant
Frame rate : 25.000 fps
Color space : YUV
Chroma subsampling : 4:2:0
Bit depth : 8 bits
Scan type : Progressive
Bits/(Pixel*Frame) : 0.166
Stream size : 1 003 MiB (80%)
Writing library : x264 core 142 r2491M 24e4fed
Encoding settings : cabac=1 / ref=12 / deblock=1:-3:-3 / analyse=0x3:0x133 / me=umh / subme=11 / psy=1 / psy_rd=1,00:0,70 / mixed_ref=1 / me_range=32 / chroma_me=1 / trellis=2 / 8x8dct=1 / cqm=0 / deadzone=21,11 / fast_pskip=0 / chroma_qp_offset=-3 / threads=16 / lookahead_threads=3 / sliced_threads=0 / nr=0 / decimate=1 / interlaced=0 / bluray_compat=0 / constrained_intra=0 / bframes=11 / b_pyramid=2 / b_adapt=2 / b_bias=0 / direct=3 / weightb=1 / open_gop=0 / weightp=2 / keyint=250 / keyint_min=25 / scenecut=40 / intra_refresh=0 / rc=2pass / mbtree=0 / bitrate=1800 / ratetol=1,0 / qcomp=0,60 / qpmin=1 / qpmax=69 / qpstep=4 / cplxblur=20,0 / qblur=0,5 / ip_ratio=1,40 / pb_ratio=1,30 / aq=1:1,00
Language : English
Default : Yes
Forced : No
DATE : -1
Audio
ID : 2
Format : AC-3
Format/Info : Audio Coding 3
Mode extension : CM (complete main)
Format settings, Endianness : Big
Codec ID : A_AC3
Duration : 1h 19mn
Bit rate mode : Constant
Bit rate : 384 Kbps
Channel(s) : 2 channels
Channel positions : Front: L R
Sampling rate : 48.0 KHz
Bit depth : 16 bits
Compression mode : Lossy
Stream size : 219 MiB (18%)
Language : Russian
Default : Yes
Forced : No
DATE : -1








   Похожие торренты   Торрент   Размер 
В этой теме нет новых непрочитанных сообщений. Вычислитель (2014) WEBRip

9240 | 333

1.37 ГБ

В этой теме нет новых непрочитанных сообщений. Вычислитель (2014) WEBRip 720р

0 | 54

2.44 ГБ

В этой теме нет новых непрочитанных сообщений. Вычислитель (2014) WEBRip 720р

4842 | 39

2.44 ГБ

В этой теме нет новых непрочитанных сообщений. Вычислитель (2014) WEBRip от BitTracker

1138 | 23

699.17 МБ

В этой теме нет новых непрочитанных сообщений. Вычислитель (2014) WEB-DLRip-AVC | iTunes

1622 | 82

1.57 ГБ

В этой теме нет новых непрочитанных сообщений. Вычислитель (2014) HDRip | iTunes

350 | 24

1.37 ГБ

В этой теме нет новых непрочитанных сообщений. Вычислитель (2014) BDRip 1080p

91 | 2

7.9 ГБ




Вы не можете начинать темы
Вы не можете отвечать на сообщения
Вы не можете редактировать свои сообщения
Вы не можете удалять свои сообщения
Вы не можете добавлять вложения

Перейти:  
Для Мосгорсуда, Роскомнадзора и рекламодателей: mosgorsud-torrent[собачка]yandex.ru
 Вход
ppkBB3cker v.2 © 2008-2014 @ PPK
[ Time : 0.047s | 17 Queries | GZIP : Off ]

cron