img image001 image001 image001 image001 image001 image001 image001 image001 image001 image001 image001 image001 image001 image001 image001

Planets Sun Sun Sun
Статистика раздачи
Автор: Nickolas3434 | Размер: 2.26 ГБ | Добавлен: 09 янв 2015
Раздают: 164    Качают: 11
Скачать торрент
Скачать торрент
Описание торрента

СообщениеДобавлено: 09 янв 2015 

Информация о фильме
Оригинальное название: Красный лёд. Сага о хантах
Год выпуска: 2009
Жанр: Драма, история
Выпущено: Россия, Югра-фильм
Режиссер: Олег Фесенко
В ролях: Александр Лымарев, Марина Александрова, Александр Баширов, Дин Махаматдинов, Бибигуль Суюншалина, Михаил Евланов, Дарья Мороз, Валерий Зеленский, Александр Лобанов
О фильме: Фильм основан на реальных событиях и повествует о восстании остяков (хантов) против Советской власти в районе реки Казым в начале 30-х годов ХХ века. Действие картины начинается еще до революции со свадьбы дочери местного православного священника, Веры с одним из остяков. Возлюбленный девушки, Илья, не успевает к венчанию и покидает деревню Богоставленку. В 30-х годах, Илья, командир Красной Армии, возвращается в родные края во главе отряда красноармейцев. В Богоставленке основан оленеводческий отряд, который возглавляет председатель Чухновский. Когда из центра приходит сообщение о необходимости борьбы с представителями культа, Чухновский со своими людьми уничтожает святыню предков на священном острове. Ханты из Богоставленки становятся стойбищем в излучине Казыма, вскоре к ним присоединяются остяки из других селений, и тогда Илья получает приказ из центра вести войска на штурм восставших.

Файл
Качество: DVDRip (AVC)
Видео: MPEG-4 AVC, 3333 Кбит/с, 720х540@960х540, 25 кадр/с
Аудио: AC3, 2 ch, 384 Кбит/с
Размер: 2.26 ГБ
Продолжительность: 01:27:00
Язык: Русский
Exclusive from ExKinoRay
Сохранены оригинальные чаптеры как на исходном DVD.
--------------------------------------------------------------
Огромная Благодарность за предоставленную копию диска и возможность Всем увидеть эту кино картину - wolot
* Сценарий картины «Красный лёд. Сага о хантах» создан по мотивам исторической драмы «Божья матерь в кровавых снегах» Еремея Айпина. В основе сюжета лежат исторические события, происходящие в Восточной Сибири в 30-х годах ХХ века.
* Лента насыщена моментами, повествующими о культуре и традициях хантов, сценами жертвоприношения, обрядами поклонения медведю и хантыйской свадьбой.
* Фильм показали на закрытии торжественной церемонии фестиваля "Дух огня" в Ханты - Мансийске еще в 2009 году, но в прокат он так не вышел.
* Открытие и закрытие фестиваля - мероприятия закрытые, вход был по приглашениям, так же фильм показывался и в кинотеатрах ХМАО, но почему то для очень ограниченного круга лиц.
* С 2009 года в сети присутсвововали только ролики этого фильма.

x264 [info]: frame I:908 Avg QP:17.37 size: 56085
x264 [info]: frame P:30122 Avg QP:19.57 size: 29887
x264 [info]: frame B:99482 Avg QP:21.98 size: 12302
x264 [info]: consecutive B-frames: 2.9% 3.9% 14.0% 10.8% 10.0% 54.4% 2.9% 0.6% 0.5% 0.1%
x264 [info]: mb I I16..4: 6.6% 78.2% 15.2%
x264 [info]: mb P I16..4: 1.5% 39.7% 3.4% P16..4: 22.1% 23.0% 6.7% 2.6% 0.2% skip: 0.8%
x264 [info]: mb B I16..4: 0.3% 6.9% 0.4% B16..8: 40.5% 23.3% 3.5% direct: 9.6% skip:15.5% L0:35.9% L1:35.8% BI:28.2%
x264 [info]: 8x8 transform intra:89.3% inter:58.6%
x264 [info]: direct mvs spatial:97.5% temporal:2.5%
x264 [info]: coded y,uvDC,uvAC intra: 95.7% 81.1% 43.5% inter: 41.8% 30.7% 7.6%
x264 [info]: i16 v,h,dc,p: 21% 8% 11% 59%
x264 [info]: i8 v,h,dc,ddl,ddr,vr,hd,vl,hu: 15% 8% 11% 8% 10% 12% 9% 14% 12%
x264 [info]: i4 v,h,dc,ddl,ddr,vr,hd,vl,hu: 20% 7% 6% 8% 13% 15% 11% 12% 10%
x264 [info]: i8c dc,h,v,p: 30% 25% 27% 18%
x264 [info]: Weighted P-Frames: Y:18.4% UV:10.7%
x264 [info]: ref P L0: 42.3% 11.3% 20.2% 6.8% 5.5% 3.6% 3.6% 2.1% 2.1% 1.8% 0.6% 0.1%
x264 [info]: ref B L0: 78.7% 11.6% 3.7% 1.9% 1.3% 1.1% 1.0% 0.5% 0.2%
x264 [info]: ref B L1: 92.7% 7.3%
x264 [info]: kb/s:3332.96

Общее
Уникальный идентификатор : 171047920063415889460884766662809767403 (0x80AEA190EB19AAF39133CE1B8E324DEB)
Полное имя : D:ЗагрузкиRed.Ice.Tale. Of. Ugra.Hunts.2009.x264.DVDRip.(AVC).ExKinoRay.mkv
Формат : Matroska
Версия формата : Version 2
Размер файла : 2,26 Гбайт
Продолжительность : 1 ч. 27 м.
Общий поток : 3719 Кбит/сек
Название фильма : Красный лёд. Сага о хантах.2009.Rip by: ollan
Дата кодирования : UTC 2015-01-08 09:02:55
Программа кодирования : mkvmerge v5.6.0 ('Kenya Kane') built on May 27 2012 16:44:04
Библиотека кодирования : libebml v1.2.3 + libmatroska v1.3.0
Видео
Идентификатор : 1
Формат : AVC
Формат/Информация : Advanced Video Codec
Профиль формата : High@L4.1
Параметр CABAC формата : Да
Параметр ReFrames формата : 10 кадров
Идентификатор кодека : V_MPEG4/ISO/AVC
Продолжительность : 1 ч. 27 м.
Битрейт : 3333 Кбит/сек
Ширина : 720 пикселей
Высота : 540 пикселей
Соотношение сторон : 16:9
Режим частоты кадров : Постоянный
Частота кадров : 25,000 кадров/сек
Цветовое пространство : YUV
Субдискретизация насыщенности : 4:2:0
Битовая глубина : 8 бит
Тип развёртки : Прогрессивная
Бит/(Пиксели*Кадры) : 0.343
Размер потока : 1,98 Гбайт (88%)
Библиотека кодирования : x264 core 125 r2200 999b753
Настройки программы : cabac=1 / ref=10 / deblock=1:-2:-2 / analyse=0x3:0x133 / me=umh / subme=11 / psy=1 / psy_rd=1.05:0.20 / mixed_ref=1 / me_range=32 / chroma_me=1 / trellis=2 / 8x8dct=1 / cqm=0 / deadzone=21,11 / fast_pskip=0 / chroma_qp_offset=-3 / threads=12 / lookahead_threads=2 / sliced_threads=0 / nr=0 / decimate=0 / interlaced=0 / bluray_compat=0 / constrained_intra=0 / bframes=9 / b_pyramid=2 / b_adapt=2 / b_bias=0 / direct=3 / weightb=1 / open_gop=0 / weightp=2 / keyint=250 / keyint_min=25 / scenecut=40 / intra_refresh=0 / rc=2pass / mbtree=0 / bitrate=3333 / ratetol=1.0 / qcomp=0.60 / qpmin=0 / qpmax=69 / qpstep=4 / cplxblur=20.0 / qblur=0.5 / ip_ratio=1.40 / pb_ratio=1.30 / aq=1:1.00
Язык : Russian
Default : Да
Forced : Нет
Основные цвета : BT.601 PAL
Характеристики трансфера : BT.470 System B, BT.470 System G
Коэффициенты матрицы : BT.601
Аудио
Идентификатор : 2
Формат : AC-3
Формат/Информация : Audio Coding 3
Расширение режима : CM (complete main)
Параметр Endianness формата : Big
Идентификатор кодека : A_AC3
Продолжительность : 1 ч. 27 м.
Вид битрейта : Постоянный
Битрейт : 384 Кбит/сек
Каналы : 2 канала
Расположение каналов : Front: L R
Частота : 48,0 КГц
Битовая глубина : 16 бит
Метод сжатия : С потерями
Размер потока : 239 Мбайт (10%)
Язык : Russian
Default : Да
Forced : Нет
Меню
00:00:00.000 : ru:Chapter 01
00:05:18.240 : ru:Chapter 02
00:10:47.040 : ru:Chapter 03
00:15:55.680 : ru:Chapter 04
00:21:27.360 : ru:Chapter 05
00:26:49.920 : ru:Chapter 06
00:32:21.600 : ru:Chapter 07
00:37:35.040 : ru:Chapter 08
00:43:06.240 : ru:Chapter 09
00:48:28.800 : ru:Chapter 10
00:53:54.240 : ru:Chapter 11
00:59:20.160 : ru:Chapter 12
01:04:41.760 : ru:Chapter 13
01:10:13.920 : ru:Chapter 14
01:15:31.680 : ru:Chapter 15
01:20:59.520 : ru:Chapter 16
01:26:21.600 : ru:Chapter 17





Релиз от: Rip by:



   Похожие торренты   Торрент   Размер 
В этой теме нет новых непрочитанных сообщений. Красный лёд. Сага о хантах (2009) DVDRip от ExKinoRay

856 | 44

1.45 ГБ

В этой теме нет новых непрочитанных сообщений. Красный лёд. Сага о хантах Югры (2009) DVD-9

32 | 10

5.26 ГБ

В этой теме нет новых непрочитанных сообщений. Красный монарх / Red Monarch (1983) DVDRip от ExKinoRay

13 | 4

1.38 ГБ

В этой теме нет новых непрочитанных сообщений. Красный берег / Beach Red (1967) DVDRip от ExKinoRay

20 | 8

1.38 ГБ

В этой теме нет новых непрочитанных сообщений. Красный лотос (2009) DVDRip

39 | 13

1.36 ГБ

В этой теме нет новых непрочитанных сообщений. Красный холст / The Red Canvas (2009) DVDRip | P

87 | 5

1.37 ГБ

В этой теме нет новых непрочитанных сообщений. Красный скорпион / Red Scorpion (1988) BDRip-AVC от ExKinoRay

5 | 10

3.3 ГБ




Вы не можете начинать темы
Вы не можете отвечать на сообщения
Вы не можете редактировать свои сообщения
Вы не можете удалять свои сообщения
Вы не можете добавлять вложения

Перейти:  
Для Мосгорсуда, Роскомнадзора и рекламодателей: mosgorsud-torrent[собачка]yandex.ru
 Вход
ppkBB3cker v.2 © 2008-2014 @ PPK
[ Time : 0.024s | 15 Queries | GZIP : Off ]

Торрент трекер RUTOR.IN, Не можете зайти на rutor.org? Какой новый адрес рутор? Какое зеркало рутор? Не работает rutor.org и зеркала? Тогда наш торрент специально для вас. Rutor.in неофициальное зеркало rutor. В случае если у Вас заблокирован rutor или вдруг Вы не можете на него зайти, то Вы без труда сможете скачать бесплатно и без рекламы последние новинки кино, игр, сериалов и прочего у нас, на Rutor.in. Не нужно использовать прокси, чтобы зайти на рутор, достаточно воспользоваться нашим ресурсом. Все новые фильмы, игры, сериалы, книги и музыка за 2013 и 2014 годы через торрент бесплатно. Скачивайте фильмы в хорошем качестве, игры для пк, xbox, playstation без регистрации. У нас вы найдете новые Зарубежные сериалы и Русские сериалы 2013, 2014, 2015 годов. Оставайтесь с нами, качайте любимые фильмы, игры, сериалы, книги и музыку.