img image001 image001 image001 image001 image001 image001 image001 image001 image001 image001 image001 image001 image001 image001 image001

Planets Sun Sun Sun
Статистика раздачи
Автор: Nickolas3434 | Размер: 1.45 ГБ | Добавлен: 09 янв 2015
Раздают: 856    Качают: 44
Скачать торрент
Скачать торрент
Описание торрента

СообщениеДобавлено: 09 янв 2015 

Информация о фильме
Оригинальное название: Красный лёд. Сага о хантах
Год выпуска: 2009
Жанр: Драма, история
Выпущено: Россия, Югра-фильм
Режиссер: Олег Фесенко
В ролях: Александр Лымарев, Марина Александрова, Александр Баширов, Дин Махаматдинов, Бибигуль Суюншалина, Михаил Евланов, Дарья Мороз, Валерий Зеленский, Александр Лобанов
О фильме: Фильм основан на реальных событиях и повествует о восстании остяков (хантов) против Советской власти в районе реки Казым в начале 30-х годов ХХ века. Действие картины начинается еще до революции со свадьбы дочери местного православного священника, Веры с одним из остяков. Возлюбленный девушки, Илья, не успевает к венчанию и покидает деревню Богоставленку. В 30-х годах, Илья, командир Красной Армии, возвращается в родные края во главе отряда красноармейцев. В Богоставленке основан оленеводческий отряд, который возглавляет председатель Чухновский. Когда из центра приходит сообщение о необходимости борьбы с представителями культа, Чухновский со своими людьми уничтожает святыню предков на священном острове. Ханты из Богоставленки становятся стойбищем в излучине Казыма, вскоре к ним присоединяются остяки из других селений, и тогда Илья получает приказ из центра вести войска на штурм восставших.

Файл
Качество: DVDRip
Видео: XviD, 1991 Кбит/с, 704x400, 25 кадр/с
Аудио: AC3, 2 ch, 384 Кбит/с
Продолжительность: 01:27:00
Язык: Русский
Exclusive from ExKinoRay
--------------------------------------------------------------
Огромная Благодарность за предоставленную копию диска и возможность Всем увидеть эту кино картину - wolot
* Сценарий картины «Красный лёд. Сага о хантах» создан по мотивам исторической драмы «Божья матерь в кровавых снегах» Еремея Айпина. В основе сюжета лежат исторические события, происходящие в Восточной Сибири в 30-х годах ХХ века.
* Лента насыщена моментами, повествующими о культуре и традициях хантов, сценами жертвоприношения, обрядами поклонения медведю и хантыйской свадьбой.
* Фильм показали на закрытии торжественной церемонии фестиваля "Дух огня" в Ханты - Мансийске еще в 2009 году, но в прокат он так не вышел.
* Открытие и закрытие фестиваля - мероприятия закрытые, вход был по приглашениям, так же фильм показывался и в кинотеатрах ХМАО, но почему то для очень ограниченного круга лиц.
* С 2009 года в сети присутсвововали только ролики этого фильма.

General
Complete name : C:Krasniy.led.2009.O.DVDRip.ExKinoRay.avi
Format : AVI
Format/Info : Audio Video Interleave
File size : 1.45 GiB
Duration : 1h 27mn
Overall bit rate : 2 385 Kbps
Writing application : VirtualDubMod 1.5.10.2 (build 2540/release)
Writing library : VirtualDubMod build 2540/release
Copyright : ExkinoRay
Video
ID : 0
Format : MPEG-4 Visual
Format profile : Advanced Simple@L5
Format settings, BVOP : 1
Format settings, QPel : No
Format settings, GMC : No warppoints
Format settings, Matrix : Custom
Codec ID : XVID
Codec ID/Hint : XviD
Duration : 1h 27mn
Bit rate : 1 991 Kbps
Width : 704 pixels
Height : 400 pixels
Display aspect ratio : 16:9
Frame rate : 25.000 fps
Color space : YUV
Chroma subsampling : 4:2:0
Bit depth : 8 bits
Scan type : Progressive
Compression mode : Lossy
Bits/(Pixel*Frame) : 0.283
Stream size : 1.21 GiB (83%)
Writing library : XviD 73
Audio
ID : 1
Format : AC-3
Format/Info : Audio Coding 3
Mode extension : CM (complete main)
Format settings, Endianness : Big
Codec ID : 2000
Duration : 1h 27mn
Bit rate mode : Constant
Bit rate : 384 Kbps
Channel(s) : 2 channels
Channel positions : Front: L R
Sampling rate : 48.0 KHz
Bit depth : 16 bits
Compression mode : Lossy
Stream size : 239 MiB (16%)
Alignment : Split accross interleaves
Interleave, duration : 40 ms (1.00 video frame)
Interleave, preload duration : 500 ms



Релиз от:
Автор релиза:



   Похожие торренты   Торрент   Размер 
В этой теме нет новых непрочитанных сообщений. Красный лёд. Сага о хантах (2009) DVDRip-AVC от ExKinoRay

164 | 11

2.26 ГБ

В этой теме нет новых непрочитанных сообщений. Красный лёд. Сага о хантах Югры (2009) DVD-9

32 | 10

5.26 ГБ

В этой теме нет новых непрочитанных сообщений. Красный монарх / Red Monarch (1983) DVDRip от ExKinoRay

13 | 4

1.38 ГБ

В этой теме нет новых непрочитанных сообщений. Красный берег / Beach Red (1967) DVDRip от ExKinoRay

20 | 8

1.38 ГБ

В этой теме нет новых непрочитанных сообщений. Красный лотос (2009) DVDRip

39 | 13

1.36 ГБ

В этой теме нет новых непрочитанных сообщений. Красный холст / The Red Canvas (2009) DVDRip | P

87 | 5

1.37 ГБ

В этой теме нет новых непрочитанных сообщений. Красный скорпион / Red Scorpion (1988) BDRip от ExKinoRay

80 | 13

1.46 ГБ




Вы не можете начинать темы
Вы не можете отвечать на сообщения
Вы не можете редактировать свои сообщения
Вы не можете удалять свои сообщения
Вы не можете добавлять вложения

Перейти:  
Для Мосгорсуда, Роскомнадзора и рекламодателей: mosgorsud-torrent[собачка]yandex.ru
 Вход
ppkBB3cker v.2 © 2008-2014 @ PPK
[ Time : 0.024s | 15 Queries | GZIP : Off ]

Торрент трекер RUTOR.IN, Не можете зайти на rutor.org? Какой новый адрес рутор? Какое зеркало рутор? Не работает rutor.org и зеркала? Тогда наш торрент специально для вас. Rutor.in неофициальное зеркало rutor. В случае если у Вас заблокирован rutor или вдруг Вы не можете на него зайти, то Вы без труда сможете скачать бесплатно и без рекламы последние новинки кино, игр, сериалов и прочего у нас, на Rutor.in. Не нужно использовать прокси, чтобы зайти на рутор, достаточно воспользоваться нашим ресурсом. Все новые фильмы, игры, сериалы, книги и музыка за 2013 и 2014 годы через торрент бесплатно. Скачивайте фильмы в хорошем качестве, игры для пк, xbox, playstation без регистрации. У нас вы найдете новые Зарубежные сериалы и Русские сериалы 2013, 2014, 2015 годов. Оставайтесь с нами, качайте любимые фильмы, игры, сериалы, книги и музыку.