img image001 image001 image001 image001 image001 image001 image001 image001 image001 image001 image001 image001 image001 image001 image001

Planets Sun Sun Sun
Статистика раздачи
Автор: Nickolas3434 | Размер: 1.47 ГБ | Добавлен: 10 янв 2015
Раздают: 38    Качают: 27
Скачать торрент
Скачать торрент
Описание торрента

СообщениеДобавлено: 10 янв 2015 

Информация о фильме
Название: Комедия о Лисистрате
Год выхода: 1989
Жанр: Комедия
Режиссер: Валерий Рубинчик
В ролях: Елена Коренева, Валентина Шендрикова, Ольга Кабо, Александр Калягин, Константин Райкин, Ирина Феофанова, Лариса Полякова, Елена Караджова, Евгений Стеблов, Ксения Галицкая
О фильме:
Во время войны Спарты и Афин женщины двух городов объединились и устроили заговор против мужчин: они заперлись в неприступном Акрополе и не открывали ворота до тех пор, пока мужчины не заключили мир.
Страна: СССР
Продолжительность: 01:33:14
Перевод: Оригинал
Файл
Кодек: XviD
Качество: VHSRip
Видео: 720x576, 2 049 Kbps, 25.000 fps
Звук: MP3 48000Hz stereo 192kbps
General
Complete name : F:VideoФильмыKomediya o Lisistrate — n-r.avi
Format : AVI
Format/Info : Audio Video Interleave
File size : 1.47 GiB
Duration : 1h 33mn
Overall bit rate : 2 251 Kbps
Video
ID : 0
Format : MPEG-4 Visual
Format profile : Advanced Simple@L5
Format settings, BVOP : 2
Format settings, QPel : No
Format settings, GMC : No warppoints
Format settings, Matrix : Default (H.263)
Codec ID : XVID
Codec ID/Hint : XviD
Duration : 1h 33mn
Bit rate : 2 049 Kbps
Width : 720 pixels
Height : 576 pixels
Display aspect ratio : 16:9
Frame rate : 25.000 fps
Standard : PAL
Color space : YUV
Chroma subsampling : 4:2:0
Bit depth : 8 bits
Scan type : Progressive
Compression mode : Lossy
Bits/(Pixel*Frame) : 0.198
Stream size : 1.33 GiB (91%)
Writing library : XviD 73
Audio
ID : 1
Format : MPEG Audio
Format version : Version 1
Format profile : Layer 3
Mode : Joint stereo
Codec ID : 55
Codec ID/Hint : MP3
Duration : 1h 33mn
Bit rate mode : Constant
Bit rate : 192 Kbps
Channel(s) : 2 channels
Sampling rate : 48.0 KHz
Compression mode : Lossy
Stream size : 128 MiB (9%)
Alignment : Split accross interleaves
Interleave, duration : 40 ms (1.00 video frame)
Interleave, preload duratio : 500 ms

Семпл




   Похожие торренты   Торрент   Размер 
В этой теме нет новых непрочитанных сообщений. Комедия о Лисистрате (1989) DVB

59 | 10

2.91 ГБ

В этой теме нет новых непрочитанных сообщений. Казённый дом (1989) VHSRip

17 | 570

700.87 МБ

В этой теме нет новых непрочитанных сообщений. Остров (1989) VHSRip

14 | 12

1.37 ГБ

В этой теме нет новых непрочитанных сообщений. Одарённый / The gifted one (1989) VHSRip | A

125 | 39

1.4 ГБ

В этой теме нет новых непрочитанных сообщений. Лабиринт / Labürint (1989) VHSRip

9 | 14

220.15 МБ

В этой теме нет новых непрочитанных сообщений. Девять лет с экстрасенсами (1989) VHSRip

2 | 3

891.99 МБ

В этой теме нет новых непрочитанных сообщений. Сирано де Бержерак (1989) VHSRip

9 | 4

688.14 МБ




Вы не можете начинать темы
Вы не можете отвечать на сообщения
Вы не можете редактировать свои сообщения
Вы не можете удалять свои сообщения
Вы не можете добавлять вложения

Перейти:  
Для Мосгорсуда, Роскомнадзора и рекламодателей: mosgorsud-torrent[собачка]yandex.ru
 Вход
ppkBB3cker v.2 © 2008-2014 @ PPK
[ Time : 0.571s | 15 Queries | GZIP : On ]

Торрент трекер RUTOR.IN, Не можете зайти на rutor.org? Какой новый адрес рутор? Какое зеркало рутор? Не работает rutor.org и зеркала? Тогда наш торрент специально для вас. Rutor.in неофициальное зеркало rutor. В случае если у Вас заблокирован rutor или вдруг Вы не можете на него зайти, то Вы без труда сможете скачать бесплатно и без рекламы последние новинки кино, игр, сериалов и прочего у нас, на Rutor.in. Не нужно использовать прокси, чтобы зайти на рутор, достаточно воспользоваться нашим ресурсом. Все новые фильмы, игры, сериалы, книги и музыка за 2013 и 2014 годы через торрент бесплатно. Скачивайте фильмы в хорошем качестве, игры для пк, xbox, playstation без регистрации. У нас вы найдете новые Зарубежные сериалы и Русские сериалы 2013, 2014, 2015 годов. Оставайтесь с нами, качайте любимые фильмы, игры, сериалы, книги и музыку.