img image001 image001 image001 image001 image001 image001 image001 image001 image001 image001 image001 image001 image001 image001 image001

Planets Sun Sun Sun
Статистика раздачи
Автор: Nickolas3434 | Размер: 1.07 ГБ | Добавлен: 09 янв 2015
Раздают: 771    Качают: 40
Скачать торрент
Скачать торрент
Описание торрента

СообщениеДобавлено: 09 янв 2015 




Информация о фильме
Название: Вычислитель
Год выхода: 2014
Жанр: Фантастика
Режиссер: Дмитрий Грачев
Продюсер: Алексей Куренков, Дмитрий Медников, Фёдор Бондарчук
В ролях: Евгений Миронов, Винни Джонс, Анна Чиповская, Иван Верховых, Владас Багдона, Алексей Колубков, Никита Панфилов, Линда Нигматулина, Пётр Сковцов, Ирене Мускара
О фильме:
Десять заключенных, приговоренных к пожизненному изгнанию с планеты XT-59, отправляются в опасный путь через Саргассово Болото. Группа сразу делится на две части: Эрвин и Кристи идут на поиск Счастливых Островов, Юст ведет остальных к Гнилой Мели. Однако долгое время их маршруты практически совпадают. В первый же вечер Эрвин понимает, что его должны убить — в прошлой жизни он занимал слишком высокий пост, и теперь он опасен для тех, кто пришел к власти. Выбрав в попутчицы Кристи, он сразу старается уйти подальше от остальных членов группы, чтобы обезопасить себя. На пути к Счастливым островам герои преодолевают массу препятствий. Цена этому — свобода и счастье.

Страна: Россия
Студия: Art Pictures Studio, ВГТРК
Продолжительность: 01:26:12
Перевод: Оригинал [iTunes]
Файл
Качество: WEB-DLRip-AVC
Видео: High@L4.1, 1400 kb/s, 984x412
Звук: AC3, 384 kb/s (6 ch)
Субтитры: Отсутствуют

General
Unique ID : 182934592853934035731974436300012253685 (0x899FEBC83D67DFF47698B92DC6E5F1F5)
Complete name : D:Вычислитель.(2014).WEBDLRip-AVC.[-=DoMiNo=-].mkv.mkv
Format : Matroska
Format version : Version 4 / Version 2
File size : 1.07 GiB
Duration : 1h 26mn
Overall bit rate : 1 784 Kbps
Writing application : XviD4PSP 7.0 / 55.48.100
Writing library : XviD4PSP 7.0 / 55.48.100
DATE : -1
COMMENT : MATROSKA,WEBM > MKV / H264 > X264 VBR-2P 1400kbps Custom / AC3 > COPY
Video
ID : 1
Format : AVC
Format/Info : Advanced Video Codec
Format profile : High@L4.1
Format settings, CABAC : Yes
Format settings, ReFrames : 12 frames
Codec ID : V_MPEG4/ISO/AVC
Duration : 1h 26mn
Bit rate : 1 400 Kbps
Width : 984 pixels
Height : 412 pixels
Display aspect ratio : 2.40:1
Frame rate mode : Constant
Frame rate : 24.000 fps
Color space : YUV
Chroma subsampling : 4:2:0
Bit depth : 8 bits
Scan type : Progressive
Bits/(Pixel*Frame) : 0.144
Stream size : 842 MiB (76%)
Writing library : x264 core 142 r2491M 24e4fed
Encoding settings : cabac=1 / ref=12 / deblock=1:-3:-3 / analyse=0x3:0x133 / me=umh / subme=11 / psy=1 / psy_rd=1,00:0,50 / mixed_ref=1 / me_range=32 / chroma_me=1 / trellis=2 / 8x8dct=1 / cqm=0 / deadzone=21,11 / fast_pskip=0 / chroma_qp_offset=-3 / threads=6 / lookahead_threads=1 / sliced_threads=0 / nr=0 / decimate=1 / interlaced=0 / bluray_compat=0 / constrained_intra=0 / bframes=11 / b_pyramid=2 / b_adapt=2 / b_bias=0 / direct=3 / weightb=1 / open_gop=0 / weightp=2 / keyint=240 / keyint_min=24 / scenecut=40 / intra_refresh=0 / rc=2pass / mbtree=0 / bitrate=1400 / ratetol=1,0 / qcomp=0,60 / qpmin=3 / qpmax=69 / qpstep=4 / cplxblur=20,0 / qblur=0,5 / ip_ratio=1,40 / pb_ratio=1,30 / aq=1:1,00
Language : English
Default : Yes
Forced : No
Color primaries : BT.709
Transfer characteristics : BT.709
Matrix coefficients : BT.709
Color range : Limited
DATE : -1
Audio
ID : 2
Format : AC-3
Format/Info : Audio Coding 3
Mode extension : CM (complete main)
Format settings, Endianness : Big
Codec ID : A_AC3
Duration : 1h 26mn
Bit rate mode : Constant
Bit rate : 384 Kbps
Channel(s) : 6 channels
Channel positions : Front: L C R, Side: L R, LFE
Sampling rate : 48.0 KHz
Bit depth : 16 bits
Compression mode : Lossy
Stream size : 237 MiB (22%)
Language : Russian
Default : Yes
Forced : No
DATE : -1
Menu
00:00:00.000 : :Глава 1
00:05:21.000 : :Глава 2
00:10:13.000 : :Глава 3
00:14:47.000 : :Глава 4
00:20:25.000 : :Глава 5
00:25:33.000 : :Глава 6
00:30:29.000 : :Глава 7
00:36:15.000 : :Глава 8
00:42:15.000 : :Глава 9
00:46:57.000 : :Глава 10
00:51:57.000 : :Глава 11
00:57:19.000 : :Глава 12
01:03:09.000 : :Глава 13
01:07:40.000 : :Глава 14
01:12:45.000 : :Глава 15
01:17:42.000 : :Глава 16
01:21:13.000 : :Глава 17








   Похожие торренты   Торрент   Размер 
В этой теме нет новых непрочитанных сообщений. Вычислитель (2014) WEB-DLRip-AVC | iTunes

1622 | 82

1.57 ГБ

В этой теме нет новых непрочитанных сообщений. Вычислитель (2014) WEB-DLRip | iTunes

5098 | 167

1.37 ГБ

В этой теме нет новых непрочитанных сообщений. Вычислитель (2014) WEB-DLRip от Scarabey | iTunes

1690 | 113

744.32 МБ

В этой теме нет новых непрочитанных сообщений. Вычислитель (2014) WEB-DLRip от Scarabey | iTunes

3669 | 249

1.44 ГБ

В этой теме нет новых непрочитанных сообщений. Вычислитель (2014) WEB-DLRip от BitTracker| iTunes

498 | 14

743.76 МБ

В этой теме нет новых непрочитанных сообщений. Вычислитель (2014) WEB-DLRip от Generalfilm | КПК | iTunes

421 | 20

295.73 МБ

В этой теме нет новых непрочитанных сообщений. Вычислитель (2014) WEB-DL 720p | iTunes

15921 | 1706

2.68 ГБ




Вы не можете начинать темы
Вы не можете отвечать на сообщения
Вы не можете редактировать свои сообщения
Вы не можете удалять свои сообщения
Вы не можете добавлять вложения

Перейти:  
Для Мосгорсуда, Роскомнадзора и рекламодателей: mosgorsud-torrent[собачка]yandex.ru
 Вход
ppkBB3cker v.2 © 2008-2014 @ PPK
[ Time : 0.047s | 16 Queries | GZIP : Off ]

cron