img image001 image001 image001 image001 image001 image001 image001 image001 image001 image001 image001 image001 image001 image001 image001

Planets Sun Sun Sun
Статистика раздачи
Автор: Nickolas3434 | Размер: 745.93 МБ | Добавлен: 09 янв 2015
Раздают: 130    Качают: 26
Скачать торрент
Скачать торрент
Описание торрента

СообщениеДобавлено: 09 янв 2015 

Информация о фильме
Название: Ночь закрытых дверей
Год выхода: 2008
Жанр: Комедия, мелодрама
Режиссёр: Юрий Кузьменко
В ролях: Елена Ксенофонтова, Александр Макогон, Евгений Березовский, Лянка Грыу, Олег Савцов, Юлия Тельпухова, Николай Коробов, Елена Новикова
О фильме:
Новогодняя ночь полна неожиданностей, и не всегда приятных. Героиня новогодней комедии «Ночь закрытых дверей» — Саша, остается на Новый Год одна. А 31 декабря у Саши День рождения. У нее есть два поклонника, но один женат, а второй просто не смог… Друзья, которых Саша пригласила на праздник, тоже отказались в последний момент. Да еще в магазине какой-то невежливый мужчина выхватил из-под самого носа последнюю бутылку любимого вина, а потом вдобавок въехал в Сашин автомобиль. К довершению всех неприятностей Саша теряет ключи от квартиры. Она вызывает мастера…
За одну эту ночь наши герои успеют разобраться в своих чувствах, расстаться с ненужным прошлым и обрести новую любовь.

Страна: Россия
Студия: Пирамида
Продолжительность: 01:32:20
Перевод: Не требуется
Файл
Кодек: XviD
Качество: DVDRip [Исходник: DVD-5]
Видео: XviD, 624x480 (1.300), 922 Кбит/с, 25 кадр/с
Звук: Русский, MP3, 48000 Гц, 128 Кбит/с, 2 канала (Стерео)
Субтитры: Нет

General
Complete name : Noch.zakritih.dverej.2008.DVDRip.745MB.avi
Format : AVI
Format/Info : Audio Video Interleave
File size : 746 MiB
Duration : 1h 32mn
Overall bit rate : 1 130 Kbps
Writing application : VirtualDubMod 1.5.10.3 (build 2550/release)
Writing library : VirtualDubMod build 2550/release
Copyright : rip by ivandubskoj
Video
ID : 0
Format : MPEG-4 Visual
Format profile : Advanced Simple@L5
Format settings, BVOP : 2
Format settings, QPel : No
Format settings, GMC : No warppoints
Format settings, Matrix : Custom
Codec ID : XVID
Codec ID/Hint : XviD
Duration : 1h 32mn
Bit rate : 992 Kbps
Width : 624 pixels
Height : 480 pixels
Display aspect ratio : 1.300
Frame rate : 25.000 fps
Color space : YUV
Chroma subsampling : 4:2:0
Bit depth : 8 bits
Scan type : Progressive
Compression mode : Lossy
Bits/(Pixel*Frame) : 0.132
Stream size : 655 MiB (88%)
Writing library : XviD 73
Audio
ID : 1
Format : MPEG Audio
Format version : Version 1
Format profile : Layer 3
Codec ID : 55
Codec ID/Hint : MP3
Duration : 1h 32mn
Bit rate mode : Constant
Bit rate : 128 Kbps
Channel(s) : 2 channels
Sampling rate : 48.0 KHz
Compression mode : Lossy
Stream size : 84.5 MiB (11%)
Alignment : Aligned on interleaves
Interleave, duration : 40 ms (1.00 video frame)
Interleave, preload duration : 504 ms
Writing library : LAME3.99r
Encoding settings : -m s -V 4 -q 0 -lowpass 17 -b 128

Автор рипа - ivandubskoj



   Похожие торренты   Торрент   Размер 
В этой теме нет новых непрочитанных сообщений. Ночь закрытых дверей (2008) DVDRip

114 | 10

1.36 ГБ

В этой теме нет новых непрочитанных сообщений. Ночь властелина / Ночь пожирателей плоти / Night of the Flesh Eaters (2008) DVDRip | Лицензия

2 | 4

1.46 ГБ

В этой теме нет новых непрочитанных сообщений. Дочка (2008) DVDRip от ivandubskoj | Лицензия

273 | 20

1.46 ГБ

В этой теме нет новых непрочитанных сообщений. 80 минут / 80 Minutes (2008) DVDRip от ivandubskoj | Лицензия

72 | 13

1.46 ГБ

В этой теме нет новых непрочитанных сообщений. Новогодняя засада (2008) DVDRip от ivandubskoj | Лицензия

5 | 10

746.24 МБ

В этой теме нет новых непрочитанных сообщений. Ключ от всех дверей 2 / Skeleton Key 2: 667 Neighbor of the Beast (2008) DVDRip

32 | 50

1.36 ГБ

В этой теме нет новых непрочитанных сообщений. Собачья ночь / Ночь собак / Nuit de chien / Diese Nacht (2008) DVDRip-AVC | L1

52 | 58

2.45 ГБ




Вы не можете начинать темы
Вы не можете отвечать на сообщения
Вы не можете редактировать свои сообщения
Вы не можете удалять свои сообщения
Вы не можете добавлять вложения

Перейти:  
Для Мосгорсуда, Роскомнадзора и рекламодателей: mosgorsud-torrent[собачка]yandex.ru
 Вход
ppkBB3cker v.2 © 2008-2014 @ PPK
[ Time : 0.060s | 16 Queries | GZIP : Off ]

Торрент трекер RUTOR.IN, Не можете зайти на rutor.org? Какой новый адрес рутор? Какое зеркало рутор? Не работает rutor.org и зеркала? Тогда наш торрент специально для вас. Rutor.in неофициальное зеркало rutor. В случае если у Вас заблокирован rutor или вдруг Вы не можете на него зайти, то Вы без труда сможете скачать бесплатно и без рекламы последние новинки кино, игр, сериалов и прочего у нас, на Rutor.in. Не нужно использовать прокси, чтобы зайти на рутор, достаточно воспользоваться нашим ресурсом. Все новые фильмы, игры, сериалы, книги и музыка за 2013 и 2014 годы через торрент бесплатно. Скачивайте фильмы в хорошем качестве, игры для пк, xbox, playstation без регистрации. У нас вы найдете новые Зарубежные сериалы и Русские сериалы 2013, 2014, 2015 годов. Оставайтесь с нами, качайте любимые фильмы, игры, сериалы, книги и музыку.
cron