img image001 image001 image001 image001 image001 image001 image001 image001 image001 image001 image001 image001 image001 image001 image001

Planets Sun Sun Sun
Статистика раздачи
Автор: Nickolas3434 | Размер: 746.24 МБ | Добавлен: 10 янв 2015
Раздают: 5    Качают: 10
Скачать торрент
Скачать торрент
Описание торрента

СообщениеДобавлено: 10 янв 2015 

Информация о фильме
Название: Новогодняя засада
Год выхода: 2008
Жанр: Комедия, детектив
Режиссёр: Сергей Борчуков
В ролях: Сергей Астахов, Василий Брыков, Ольга Чудакова, Даниил Белых, Лилия Кондрова, Наталья Худякова, Екатерина Волкова, Олег Леушин, Михаил Богдасаров, Игорь Письменный
О фильме:
Из музея украдена скульптура богини Клото — одна из частей триптиха. Вместо нее оставлен эклер — знак того, что это проделки известного вора Кондитера. Расследованием занимаются хмурый опер Воронин, очаровательная дама-майор Ковалева и молодой оперативник Нагайкин. Предположив, что Кондитер хочет заполучить весь триптих, в новогоднюю ночь они прикидываются членами фан-клуба детективного чтива и устраивают засаду дома у писательницы Шаховой, у которой находится третья скульптура.
Там милиционеры знакомятся с историком Журавским, женихом писательницы, вместе с которым она утром ездила в Александров к маме. У Шаховой начинают собираться гости. И тут неожиданно Ковалева находит роман Шаховой, где описана кража скульптуры…

Страна: Россия
Студия: «Русское счастье»
Продолжительность: 01:30:14
Перевод: Не требуется
Файл
Кодек: XviD
Качество: DVDRip [Исходник: DVD-5]
Видео: XviD, 656x368 (16:9), 1018 Кбит/с, 25 кадр/с
Звук: Русский, MP3, 48000 Гц, 128 кбит/с, 2 канала (Стерео)
Субтитры: Нет

General
Complete name : Novogodnyaya.zasada.2008.DVDRip.745MB.avi
Format : AVI
Format/Info : Audio Video Interleave
File size : 746 MiB
Duration : 1h 30mn
Overall bit rate : 1 156 Kbps
Writing application : VirtualDubMod 1.5.10.3 (build 2550/release)
Writing library : VirtualDubMod build 2550/release
Copyright : rip by ivandubskoj
Video
ID : 0
Format : MPEG-4 Visual
Format profile : Advanced Simple@L5
Format settings, BVOP : 2
Format settings, QPel : No
Format settings, GMC : No warppoints
Format settings, Matrix : Custom
Codec ID : XVID
Codec ID/Hint : XviD
Duration : 1h 30mn
Bit rate : 1 018 Kbps
Width : 656 pixels
Height : 368 pixels
Display aspect ratio : 16:9
Frame rate : 25.000 fps
Color space : YUV
Chroma subsampling : 4:2:0
Bit depth : 8 bits
Scan type : Progressive
Compression mode : Lossy
Bits/(Pixel*Frame) : 0.169
Stream size : 657 MiB (88%)
Writing library : XviD 73
Audio
ID : 1
Format : MPEG Audio
Format version : Version 1
Format profile : Layer 3
Codec ID : 55
Codec ID/Hint : MP3
Duration : 1h 30mn
Bit rate mode : Constant
Bit rate : 128 Kbps
Channel(s) : 2 channels
Sampling rate : 48.0 KHz
Compression mode : Lossy
Stream size : 82.6 MiB (11%)
Alignment : Aligned on interleaves
Interleave, duration : 40 ms (1.00 video frame)
Interleave, preload duration : 504 ms
Writing library : LAME3.99r
Encoding settings : -m s -V 4 -q 0 -lowpass 17 -b 128

Автор рипа - ivandubskoj



   Похожие торренты   Торрент   Размер 
В этой теме нет новых непрочитанных сообщений. Новогодняя засада (2008) DVDRip

2 | 2

699.79 МБ

В этой теме нет новых непрочитанных сообщений. Новогодняя засада (2008) DVDRip

44 | 4

1.35 ГБ

В этой теме нет новых непрочитанных сообщений. Новогодняя засада (2008) DVDRip от Youtracker

18 | 3

1.43 ГБ

В этой теме нет новых непрочитанных сообщений. Дочка (2008) DVDRip от ivandubskoj | Лицензия

273 | 20

1.46 ГБ

В этой теме нет новых непрочитанных сообщений. 80 минут / 80 Minutes (2008) DVDRip от ivandubskoj | Лицензия

72 | 13

1.46 ГБ

В этой теме нет новых непрочитанных сообщений. Новогодняя жена (2012) HDTVRip от ivandubskoj

234 | 13

746.05 МБ

В этой теме нет новых непрочитанных сообщений. Новогодняя жена (2012) HDTVRip от ivandubskoj

333 | 25

1.46 ГБ




Вы не можете начинать темы
Вы не можете отвечать на сообщения
Вы не можете редактировать свои сообщения
Вы не можете удалять свои сообщения
Вы не можете добавлять вложения

Перейти:  
Для Мосгорсуда, Роскомнадзора и рекламодателей: mosgorsud-torrent[собачка]yandex.ru
 Вход
ppkBB3cker v.2 © 2008-2014 @ PPK
[ Time : 0.028s | 16 Queries | GZIP : Off ]

Торрент трекер RUTOR.IN, Не можете зайти на rutor.org? Какой новый адрес рутор? Какое зеркало рутор? Не работает rutor.org и зеркала? Тогда наш торрент специально для вас. Rutor.in неофициальное зеркало rutor. В случае если у Вас заблокирован rutor или вдруг Вы не можете на него зайти, то Вы без труда сможете скачать бесплатно и без рекламы последние новинки кино, игр, сериалов и прочего у нас, на Rutor.in. Не нужно использовать прокси, чтобы зайти на рутор, достаточно воспользоваться нашим ресурсом. Все новые фильмы, игры, сериалы, книги и музыка за 2013 и 2014 годы через торрент бесплатно. Скачивайте фильмы в хорошем качестве, игры для пк, xbox, playstation без регистрации. У нас вы найдете новые Зарубежные сериалы и Русские сериалы 2013, 2014, 2015 годов. Оставайтесь с нами, качайте любимые фильмы, игры, сериалы, книги и музыку.