img image001 image001 image001 image001 image001 image001 image001 image001 image001 image001 image001 image001 image001 image001 image001

Planets Sun Sun Sun
Статистика раздачи
Автор: Nickolas3434 | Размер: 744.74 МБ | Добавлен: 10 янв 2015
Раздают: 211    Качают: 10
Скачать торрент
Скачать торрент
Описание торрента

СообщениеДобавлено: 10 янв 2015 

Информация о фильме
Название: Мечты из пластилина
Год выхода: 2012
Жанр: Мелодрама, драма, криминал
Режиссёр: Максим Мехеда
В ролях: Игорь Петренко, Екатерина Климова, Алексей Комашко, Поля Полякова, Александр Мохов, Александр Кобзарь, Александра Киреева, Нина Антонова, Григорий Боковенко, Александр Бондаренко
О фильме:
Куда приводят детские мечты? И стоит ли быть зависимым от иллюзий. 8-ми летняя Оксана влюбляется в сотрудника своего отца, 25-ти летнего красавца Бориса. Он, в шутку обещает подождать, пока девочка вырастет и жениться на ней. Слово Борис не сдерживает, и жениться на своей сверстнице Вике. Оксана по детски драматично переживает это.
Она обещает себе, что во что бы то ни стало, завоюет Бориса. По совету бабушки, девочка лепит свою мечту из пластилина. Спустя почти 10 лет она горько пожалеет о своем желании. Чтобы распознать истинные чувства, девушке придется пережить крах семейного бизнеса, потерю самого близкого и любящего человека. Лишь избавившись от навязчивой идеи детства, Оксана обретет счастье.

Страна: Россия
Студия: Star Media
Продолжительность: 01:27:04
Перевод: Не требуется
Файл
Кодек: XviD
Качество: WEB-DLRip [Исходник: WEB-DL (720p)]
Видео: XviD, 656x368 (16:9), 1058 Кбит/с, 25 кадр/с
Звук: Русский, MP3, 48000 Гц, 128 кбит/с, 2 канала (Стерео)
Субтитры: Нет

General
Complete name : Mechty.iz.plastilina.2012.WEB-DLRip.745MB.avi
Format : AVI
Format/Info : Audio Video Interleave
File size : 745 MiB
Duration : 1h 27mn
Overall bit rate : 1 196 Kbps
Writing application : VirtualDubMod 1.5.10.3 (build 2550/release)
Writing library : VirtualDubMod build 2550/release
Copyright : rip by ivandubskoj
Video
ID : 0
Format : MPEG-4 Visual
Format profile : Advanced Simple@L5
Format settings, BVOP : 2
Format settings, QPel : No
Format settings, GMC : No warppoints
Format settings, Matrix : Custom
Codec ID : XVID
Codec ID/Hint : XviD
Duration : 1h 27mn
Bit rate : 1 058 Kbps
Width : 656 pixels
Height : 368 pixels
Display aspect ratio : 16:9
Frame rate : 25.000 fps
Color space : YUV
Chroma subsampling : 4:2:0
Bit depth : 8 bits
Scan type : Progressive
Compression mode : Lossy
Bits/(Pixel*Frame) : 0.175
Stream size : 659 MiB (88%)
Writing library : XviD 73
Audio
ID : 1
Format : MPEG Audio
Format version : Version 1
Format profile : Layer 3
Codec ID : 55
Codec ID/Hint : MP3
Duration : 1h 27mn
Bit rate mode : Constant
Bit rate : 128 Kbps
Channel(s) : 2 channels
Sampling rate : 48.0 KHz
Compression mode : Lossy
Stream size : 79.7 MiB (11%)
Alignment : Aligned on interleaves
Interleave, duration : 40 ms (1.00 video frame)
Interleave, preload duration : 504 ms
Writing library : LAME3.99r
Encoding settings : -m s -V 4 -q 0 -lowpass 17 -b 128

Автор рипа - ivandubskoj



   Похожие торренты   Торрент   Размер 
В этой теме нет новых непрочитанных сообщений. Мечты из пластилина (2012) WEB-DLRip от Generalfilm

52 | 9

1.37 ГБ

В этой теме нет новых непрочитанных сообщений. Мечты из пластилина (2012) SATRip

41 | 6

701.92 МБ

В этой теме нет новых непрочитанных сообщений. Мечты из пластилина (2012) HDTVRip

6 | 3

747.72 МБ

В этой теме нет новых непрочитанных сообщений. Мечты из пластилина (2012) SATRip от КинозалSAT

45 | 7

1.37 ГБ

В этой теме нет новых непрочитанных сообщений. Мечты из пластилина (2012) HDTV 1080i

21 | 3

5.51 ГБ

В этой теме нет новых непрочитанных сообщений. Мечты / Пробуждение / Awaken (2012) WEB-DLRip | НТВ+

11 | 3

1.37 ГБ

В этой теме нет новых непрочитанных сообщений. Волшебный город / Город мечты / Город чудес / Magic City [S01-02] (2012-2013) WEB-DLRip | LostFilm

40 | 4

8.23 ГБ




Вы не можете начинать темы
Вы не можете отвечать на сообщения
Вы не можете редактировать свои сообщения
Вы не можете удалять свои сообщения
Вы не можете добавлять вложения

Перейти:  
Для Мосгорсуда, Роскомнадзора и рекламодателей: mosgorsud-torrent[собачка]yandex.ru
 Вход
ppkBB3cker v.2 © 2008-2014 @ PPK
[ Time : 1.375s | 16 Queries | GZIP : Off ]

Торрент трекер RUTOR.IN, Не можете зайти на rutor.org? Какой новый адрес рутор? Какое зеркало рутор? Не работает rutor.org и зеркала? Тогда наш торрент специально для вас. Rutor.in неофициальное зеркало rutor. В случае если у Вас заблокирован rutor или вдруг Вы не можете на него зайти, то Вы без труда сможете скачать бесплатно и без рекламы последние новинки кино, игр, сериалов и прочего у нас, на Rutor.in. Не нужно использовать прокси, чтобы зайти на рутор, достаточно воспользоваться нашим ресурсом. Все новые фильмы, игры, сериалы, книги и музыка за 2013 и 2014 годы через торрент бесплатно. Скачивайте фильмы в хорошем качестве, игры для пк, xbox, playstation без регистрации. У нас вы найдете новые Зарубежные сериалы и Русские сериалы 2013, 2014, 2015 годов. Оставайтесь с нами, качайте любимые фильмы, игры, сериалы, книги и музыку.