img image001 image001 image001 image001 image001 image001 image001 image001 image001 image001 image001 image001 image001 image001 image001

Planets Sun Sun Sun
Статистика раздачи
Автор: Nickolas3434 | Размер: 745.87 МБ | Добавлен: 10 янв 2015
Раздают: 7    Качают: 10
Скачать торрент
Скачать торрент
Описание торрента

СообщениеДобавлено: 10 янв 2015 

Страна: СССР
Производство: Ленфильм
Жанр: мелодрама
Год выпуска: 1940
Продолжительность: 01:11:34
Перевод: Не требуется
Cубтитры: нет
Оригинальная аудиодорожка: русский
Режиссер: Ян Фрид
В ролях:
Николай Симонов, Татьяна Гурецкая, Владимир Тумаларьянц, Лидия Карташова, Александр Чистяков, Владимир Лукин, Вадик Федотов, Константин Злобин, Борис Пославский, Георгий Семёнов, Александр Гай...
Описание:
Маленький Никита сбегает из дома и отправляется в Арктику на поиски отца, которого никогда не видел…





Источник: DVB
Качество видео: SATRip
Формат видео: AVI
Виде: 704x528 (4:3), 25 fps, XviD ~ 1319 kbps avg, 0.142 bit/pixel
Аудио: 48 kHz, MP3 2.0, 128 kbps
Раздача от:
Общее
Полное имя : Vozvrashhenie.1940.SATRip-745_[New-team]_by_AVP_Studio.avi
Формат : AVI
Формат/Информация : Audio Video Interleave
Размер файла : 746 Мбайт
Продолжительность : 1 ч. 11 м.
Общий поток : 1457 Кбит/сек
Программа кодирования : VirtualDubModRus 1.5.10.2 (build 2542/release)
Библиотека кодирования : VirtualDubMod build 2542/release
Видео
Идентификатор : 0
Формат : MPEG-4 Visual
Профиль формата : Advanced Simple@L5
Параметр BVOP формата : 1
Параметр QPel формата : Нет
Параметр GMC формата : Без точки перехода
Параметр матрицы формата : Выборочная
Идентификатор кодека : XVID
Идентификатор кодека/Подсказка : XviD
Продолжительность : 1 ч. 11 м.
Битрейт : 1319 Кбит/сек
Ширина : 704 пикселя
Высота : 528 пикселей
Соотношение сторон : 4:3
Частота кадров : 25,000 кадров/сек
Цветовое пространство : YUV
Субдискретизация насыщенности : 4:2:0
Битовая глубина : 8 бит
Тип развёртки : Прогрессивная
Метод сжатия : С потерями
Бит/(Пиксели*Кадры) : 0.142
Размер потока : 675 Мбайт (91%)
Библиотека кодирования : XviD 73
Аудио
Идентификатор : 1
Формат : MPEG Audio
Версия формата : Version 1
Профиль формата : Layer 3
Идентификатор кодека : 55
Идентификатор кодека/Подсказка : MP3
Продолжительность : 1 ч. 11 м.
Вид битрейта : Постоянный
Битрейт : 128 Кбит/сек
Каналы : 2 канала
Частота : 48,0 КГц
Метод сжатия : С потерями
Размер потока : 65,5 Мбайт (9%)
Выравнивание : Соединение по промежуткам
Продолжительность промежутка : 40 мс. (1,00 видеокадр)
Время предзагрузки промежутка : 504 мс.
Библиотека кодирования : LAME3.99r
Настройки программы : -m s -V 4 -q 2 -lowpass 17 -b 128





   Похожие торренты   Торрент   Размер 
В этой теме нет новых непрочитанных сообщений. Возвращение (1940) SATRip от New-Team

14 | 3

1.09 ГБ

В этой теме нет новых непрочитанных сообщений. Возвращение (1940) SATRip-AVC от New-Team

10 | 6

1.09 ГБ

В этой теме нет новых непрочитанных сообщений. Будни (1940) SATRip-AVC от New-Team

17 | 2

1.46 ГБ

В этой теме нет новых непрочитанных сообщений. Бабы (1940) SATRip от New-Team

13 | 4

745.31 МБ

В этой теме нет новых непрочитанных сообщений. Бабы (1940) SATRip от New-Team

10 | 6

1.46 ГБ

В этой теме нет новых непрочитанных сообщений. Бабы (1940) SATRip-AVC от New-Team

59 | 16

1.46 ГБ

В этой теме нет новых непрочитанных сообщений. Будни (1940) SATRip от New-Team

8 | 3

744.94 МБ




Вы не можете начинать темы
Вы не можете отвечать на сообщения
Вы не можете редактировать свои сообщения
Вы не можете удалять свои сообщения
Вы не можете добавлять вложения

Перейти:  
Для Мосгорсуда, Роскомнадзора и рекламодателей: mosgorsud-torrent[собачка]yandex.ru
 Вход
ppkBB3cker v.2 © 2008-2014 @ PPK
[ Time : 0.049s | 19 Queries | GZIP : Off ]

cron