img image001 image001 image001 image001 image001 image001 image001 image001 image001 image001 image001 image001 image001 image001 image001

Planets Sun Sun Sun
Статистика раздачи
Автор: Nickolas3434 | Размер: 1.46 ГБ | Добавлен: 13 янв 2015
Раздают: 14    Качают: 6
Скачать торрент
Скачать торрент
Описание торрента

СообщениеДобавлено: 13 янв 2015 

Страна: СССР
Производство: Мосфильм
Жанр: драма
Год выпуска: 1940
Продолжительность: 01:35:36
Перевод: Не требуется
Cубтитры: нет
Оригинальная аудиодорожка: русский
Режиссер: Борис Иванов, Александр Столпер
В ролях:
Даниил Сагал, Александр Лукьянов, Освальд Глазунов (Глазниек), Нина Зорская, Елена Кондратьева, Анна Запорожец, Григорий Шпигель, Михаил Сидоркин, Иван Любезнов, Алексей Алексеев, Борис Терентьев, Валентина Караваева, Наталья Гицерот, Александр Смирнов, Надир Малишевский...
Описание:
О жизни советского студенчества. Группа студентов-выпускников мединститута устраивает прощальный вечер. Неожиданно появившийся секретарь обкома комсомола начинает откровенную агитацию половой распущенности. Вечеринка превращается в безобразную пьянку…





Источник: DVB
Качество видео: SATRip
Формат видео: AVI
Виде: 688x512 (4:3), 25 fps, XviD ~ 1977 kbps avg, 0.224 bit/pixel
Аудио: 48 kHz, Dolby Digital AC3 2.0, 192 kbps
Раздача от:
Общее
Полное имя : Zakon.zhizni.1940.SATRip_[New-team]_by_AVP_Studio.avi
Формат : AVI
Формат/Информация : Audio Video Interleave
Размер файла : 1,46 Гбайт
Продолжительность : 1 ч. 35 м.
Общий поток : 2179 Кбит/сек
Программа кодирования : VirtualDubModRus 1.5.10.2 (build 2542/release)
Библиотека кодирования : VirtualDubMod build 2542/release
Видео
Идентификатор : 0
Формат : MPEG-4 Visual
Профиль формата : Advanced Simple@L5
Параметр BVOP формата : 1
Параметр QPel формата : Нет
Параметр GMC формата : Без точки перехода
Параметр матрицы формата : Выборочная
Идентификатор кодека : XVID
Идентификатор кодека/Подсказка : XviD
Продолжительность : 1 ч. 35 м.
Битрейт : 1977 Кбит/сек
Ширина : 688 пикселей
Высота : 512 пикселей
Соотношение сторон : 4:3
Частота кадров : 25,000 кадров/сек
Цветовое пространство : YUV
Субдискретизация насыщенности : 4:2:0
Битовая глубина : 8 бит
Тип развёртки : Прогрессивная
Метод сжатия : С потерями
Бит/(Пиксели*Кадры) : 0.224
Размер потока : 1,32 Гбайт (91%)
Библиотека кодирования : XviD 73
Аудио
Идентификатор : 1
Формат : AC-3
Формат/Информация : Audio Coding 3
Расширение режима : CM (complete main)
Параметр Endianness формата : Big
Идентификатор кодека : 2000
Продолжительность : 1 ч. 35 м.
Вид битрейта : Постоянный
Битрейт : 192 Кбит/сек
Каналы : 2 канала
Расположение каналов : Front: L R
Частота : 48,0 КГц
Битовая глубина : 16 бит
Метод сжатия : С потерями
Размер потока : 131 Мбайт (9%)
Выравнивание : Разделение по промежуткам
Продолжительность промежутка : 40 мс. (1,00 видеокадр)
Время предзагрузки промежутка : 500 мс





   Похожие торренты   Торрент   Размер 
В этой теме нет новых непрочитанных сообщений. Закон жизни (1940) SATRip-AVC от New-Team

42 | 5

1.46 ГБ

В этой теме нет новых непрочитанных сообщений. Закон жизни (1940) SATRip от New-Team

10 | 3

744.49 МБ

В этой теме нет новых непрочитанных сообщений. Закон жизни (1940) DVDRip

6 | 2

1.37 ГБ

В этой теме нет новых непрочитанных сообщений. Будни (1940) SATRip от New-Team

8 | 3

744.94 МБ

В этой теме нет новых непрочитанных сообщений. Бабы (1940) SATRip от New-Team

10 | 6

1.46 ГБ

В этой теме нет новых непрочитанных сообщений. Возвращение (1940) SATRip от New-Team

7 | 10

745.87 МБ

В этой теме нет новых непрочитанных сообщений. Будни (1940) SATRip-AVC от New-Team

17 | 2

1.46 ГБ




Вы не можете начинать темы
Вы не можете отвечать на сообщения
Вы не можете редактировать свои сообщения
Вы не можете удалять свои сообщения
Вы не можете добавлять вложения

Перейти:  
Для Мосгорсуда, Роскомнадзора и рекламодателей: mosgorsud-torrent[собачка]yandex.ru
 Вход
ppkBB3cker v.2 © 2008-2014 @ PPK
[ Time : 0.040s | 16 Queries | GZIP : Off ]

cron